+ Reply to Thread
Results 1 to 3 of 3
  1. #1
    Administrators Duckload.us's Avatar
    Join Date
    Dec 2010
    Posts
    106,060
    Thanks
    9
    Thanked 109,985 Times in 51,401 Posts

    Question [ฝรั่ง][ใหม่.พากย์ไทยมาสเตอร์]-John Wick Chapter 3 (2019) จอห์น วิค แรงกว่านรก 3-[Super HQ]-[BluRay.1080p.X264][Sound:Eng DTS & AAC/Tha AC3 5.1:Master.Modifide][SUB:Eng/Tha.SRT]



    ในภาคใหม่นี้ John Wick ต้องถูกคนทั้งโลกตามล่าด้วยค่าหัว $14 ล้านเหรียญ เนื่องจากเขาได้แหกกฎกลาง โดยการฆ่าคนในพื้นที่โรงแรมของ Continental และยิ่งคนที่เขาฆ่าคือสมาชิกระดับสูง เขาจึงต้องสู้และฆ่ากับศัตรูรอบด้านเพื่อหาทางหลบหนี ออกจากเมืองนิวยอร์ก

    Format : Matroska
    Format version : Version 4
    File size : 4.49 GiB
    Duration : 2 h 11 min
    Overall bit rate : 4 897 kb/s
    Movie name : John.Wick.Chapter.3.-.Parabellum.2019.1080p.BluRay.x264-[SUPER HQ][email protected] CUP
    Encoded date : UTC 2019-09-11 08:35:27
    Writing application : mkvmerge v37.0.0 ('Leave It') 64-bit
    Writing library : libebml v1.3.9 + libmatroska v1.5.2
    Cover : Yes
    Attachments : cover.jpg

    Video
    ID : 1
    Format : AVC
    Format/Info : Advanced Video Codec
    Format profile : [email protected]
    Format settings : CABAC / 1 Ref Frames
    Format settings, CABAC : Yes
    Format settings, Reference frames : 1 frame
    Format settings, GOP : M=1, N=25
    Codec ID : V_MPEG4/ISO/AVC
    Duration : 2 h 11 min
    Bit rate mode : Constant
    Bit rate : 3 400 kb/s
    Width : 1 920 pixels
    Height : 800 pixels
    Display aspect ratio : 2.40:1
    Frame rate mode : Constant
    Frame rate : 29.970 (30000/1001) FPS
    Color space : YUV
    Chroma subsampling : 4:2:0
    Bit depth : 8 bits
    Scan type : Progressive
    Bits/(Pixel*Frame) : 0.074
    Stream size : 3.11 GiB (69%)
    Title : John.Wick.Chapter.3.-.Parabellum.2019.1080p.BluRay.x264-[SUPER HQ][email protected] CUP
    Language : English
    Default : Yes
    Forced : No

    Audio #1
    ID : 2
    Format : AC-3
    Format/Info : Audio Coding 3
    Commercial name : Dolby Digital
    Codec ID : A_AC3
    Duration : 2 h 11 min
    Bit rate mode : Constant
    Bit rate : 640 kb/s
    Channel(s) : 6 channels
    Channel layout : L R C LFE Ls Rs
    Sampling rate : 44.1 kHz
    Frame rate : 28.711 FPS (1536 SPF)
    Bit depth : 16 bits
    Compression mode : Lossy
    Stream size : 601 MiB (13%)
    Title : 5.1 AC3 Thai 640K 600M
    Language : Thai
    Service kind : Complete Main
    Default : Yes
    Forced : No

    Audio #2
    ID : 3
    Format : DTS
    Format/Info : Digital Theater Systems
    Codec ID : A_DTS
    Duration : 2 h 11 min
    Bit rate mode : Constant
    Bit rate : 661 kb/s
    Channel(s) : 6 channels
    Channel layout : C L R Ls Rs LFE
    Sampling rate : 8 000 Hz
    Frame rate : 7.813 FPS (1024 SPF)
    Bit depth : 16 bits
    Compression mode : Lossy
    Stream size : 621 MiB (14%)
    Title : DTS 5.1 ENG 8000-620M
    Language : English
    Default : No
    Forced : No

    Audio #3
    ID : 4
    Format : AAC LC
    Format/Info : Advanced Audio Codec Low Complexity
    Codec ID : A_AAC-2
    Duration : 2 h 11 min
    Bit rate : 192 kb/s
    Channel(s) : 2 channels
    Channel layout : L R
    Sampling rate : 44.1 kHz
    Frame rate : 43.066 FPS (1024 SPF)
    Compression mode : Lossy
    Stream size : 183 MiB (4%)
    Title : 2.0 AAC
    Language : English
    Default : No
    Forced : No

    Text #1
    ID : 5
    Format : UTF-8
    Codec ID : S_TEXT/UTF8
    Codec ID/Info : UTF-8 Plain Text
    Duration : 1 h 59 min
    Bit rate : 57 b/s
    Count of elements : 692
    Stream size : 50.0 KiB (0%)
    Title : SRT
    Language : Thai
    Default : Yes
    Forced : No

    Text #2
    ID : 6
    Format : UTF-8
    Codec ID : S_TEXT/UTF8
    Codec ID/Info : UTF-8 Plain Text
    Duration : 1 h 59 min
    Bit rate : 24 b/s
    Count of elements : 724
    Stream size : 21.2 KiB (0%)
    Title : SRT
    Language : English
    Default : No
    Forced : No

    Text #3
    ID : 7
    Format : UTF-8
    Codec ID : S_TEXT/UTF8
    Codec ID/Info : UTF-8 Plain Text
    Duration : 2 h 0 min
    Bit rate : 32 b/s
    Count of elements : 1161
    Stream size : 29.1 KiB (0%)
    Title : SRT-Hearing Impaired=ผู้บกพร่องทางเสียง
    Language : English
    Default : No
    Forced : No





    4.5 GB
    Download: cornfile
    http://cornfile.com/sgncvn7y5ji9
    Download: mekafile
    http://www.mekafile.com/dl.php?f=Tcf2c9bYU077

    2.4 GB
    Download: cornfile
    http://cornfile.com/dcnmqnkh7hpf
    Download: mekafile
    http://www.mekafile.com/dl.php?f=Isa4b0bYTxGt

    6.7 GB
    Download: cornfile
    http://cornfile.com/zpf7q7z5zia6
    Download: mekafile
    http://www.mekafile.com/dl.php?f=dJea8ebYVZh6

  2. The Following 5 Users Say Thank You to Duckload.us For This Useful Post:

    agg001 (09-11-2019), bigbang06 (09-11-2019), Liquidman (09-12-2019), noi54 (09-11-2019), spiderpud2 (09-12-2019)

  3. #2
    Senior Member
    Join Date
    Jun 2014
    Posts
    866
    Thanks
    0
    Thanked 0 Times in 0 Posts
    ขอบคุณครับ

  4. #3
    Senior Member
    Join Date
    Jun 2012
    Posts
    1,187
    Thanks
    0
    Thanked 1 Time in 1 Post
    ขอบคุณครับ

+ Reply to Thread

Thread Information

Users Browsing this Thread

There are currently 1 users browsing this thread. (0 members and 1 guests)

     

Posting Permissions

  • You may not post new threads
  • You may not post replies
  • You may not post attachments
  • You may not edit your posts