+ Reply to Thread
Results 1 to 3 of 3
  1. #1
    Administrators Duckload.us's Avatar
    Join Date
    Dec 2010
    Posts
    106,204
    Thanks
    9
    Thanked 110,123 Times in 51,450 Posts

    Question [ฝรั่ง]-[ใหม่ ภาพชัดประมาณมาสเตอร์]*** Childs Play (2019) --- คลั่ง...ฝังหุ่น *** -WEB-DL.H.264.1080p. [Modified]-[พากย์ไทยโรง]




    เรื่องย่อ : เรื่องราวหลังจากย้ายไปเมืองใหม่เพื่อหวังจะได้เริ่ม ต้นใช้ชีวิตอย่างชื่นบาน คาเรน (ออเบรย์ พลาซ่า) ก็อยากจะให้ลูกชายของเธอ แอนดี้ (แกเบรียล เบทแมน) ปรับตัวให้เข้ากับสถานที่ใหม่ และผูกมิตรกับเพื่อนใหม่ ๆ ให้ได้ ลูกชายของเธอต้องพยายามอย่างหนักเพื่อที่จะปรับตัวให ้เข้ากับชีวิตใหม่ของเขา และเธอได้ซื้อตุ๊กตาไฮเทค เป็นของขวัญให้กับเขา โดยที่เธอไม่ได้คาดคิดมาก่อนว่าตุ๊กตาตัวนั้นจะถูกวิ ญญาณร้ายของฆาตกรต่อเนื่องเข้ามาสิง มันคลั่งและออกมาไล่เชือดผู้คนให้ต้องตกเป็นเหยื่อมา กมาย!!!


    Format : Matroska
    Format version : Version 4
    File size : 3.20 GiB
    Duration : 1 h 29 min
    Overall bit rate : 5 098 kb/s
    Encoded date : UTC 2019-09-10 23:05:49
    Writing application : mkvmerge v37.0.0 ('Leave It') 64-bit
    Writing library : libebml v1.3.9 + libmatroska v1.5.2

    Video
    ID : 2
    Format : AVC
    Format/Info : Advanced Video Codec
    Format profile : [email protected]
    Format settings : CABAC / 5 Ref Frames
    Format settings, CABAC : Yes
    Format settings, Reference frames : 5 frames
    Codec ID : V_MPEG4/ISO/AVC
    Duration : 1 h 29 min
    Bit rate : 4 571 kb/s
    Width : 1 912 pixels
    Height : 800 pixels
    Display aspect ratio : 2.40:1
    Frame rate mode : Constant
    Frame rate : 23.976 (23976/1000) FPS
    Color space : YUV
    Chroma subsampling : 4:2:0
    Bit depth : 8 bits
    Scan type : Progressive
    Bits/(Pixel*Frame) : 0.125
    Stream size : 2.87 GiB (90%)
    Language : English
    Default : Yes
    Forced : No
    Color range : Limited
    Color primaries : BT.709
    Transfer characteristics : BT.709
    Matrix coefficients : BT.709

    Audio #1
    ID : 1
    Format : AC-3
    Format/Info : Audio Coding 3
    Commercial name : Dolby Digital
    Codec ID : A_AC3
    Duration : 1 h 29 min
    Bit rate mode : Constant
    Bit rate : 384 kb/s
    Channel(s) : 6 channels
    Channel layout : L R C LFE Ls Rs
    Sampling rate : 48.0 kHz
    Frame rate : 31.250 FPS (1536 SPF)
    Bit depth : 16 bits
    Compression mode : Lossy
    Delay relative to video : -42 ms
    Stream size : 247 MiB (8%)
    Language : English
    Service kind : Complete Main
    Default : Yes
    Forced : No

    Audio #2
    ID : 3
    Format : AAC LC
    Format/Info : Advanced Audio Codec Low Complexity
    Codec ID : A_AAC-2
    Duration : 1 h 29 min
    Bit rate : 140 kb/s
    Channel(s) : 2 channels
    Channel layout : L R
    Sampling rate : 48.0 kHz
    Frame rate : 46.875 FPS (1024 SPF)
    Compression mode : Lossy
    Delay relative to video : -42 ms
    Stream size : 90.2 MiB (3%)
    Title : เสียงไทยโรง
    Language : Thai
    Default : No
    Forced : No

    Menu
    00:00:00.000 : en:1
    00:12:00.000 : en:2
    00:24:01.000 : en:3
    00:32:38.000 : en:4
    00:40:53.000 : en:5
    00:56:44.000 : en:6
    01:06:58.000 : en:7
    01:16:40.000 : en:8
    01:23:51.000 : en:9





    Download: cornfile
    http://cornfile.com/88gtoypxya4a
    Download: mekafile
    http://www.mekafile.com/dl.php?f=YW1142bYU4Uh

  2. The Following 4 Users Say Thank You to Duckload.us For This Useful Post:

    noi54 (09-12-2019), pumnarin (09-13-2019), Tellmon (09-13-2019), Wesker_TOT (09-12-2019)

  3. #2
    Senior Member
    Join Date
    Dec 2013
    Posts
    1,759
    Thanks
    3,711
    Thanked 0 Times in 0 Posts
    อูยยยยย...

    ขอบคุณครับ...

  4. #3
    Senior Member
    Join Date
    Jun 2014
    Posts
    877
    Thanks
    0
    Thanked 0 Times in 0 Posts
    ขอบคุณครับ

+ Reply to Thread

Thread Information

Users Browsing this Thread

There are currently 1 users browsing this thread. (0 members and 1 guests)

     

Posting Permissions

  • You may not post new threads
  • You may not post replies
  • You may not post attachments
  • You may not edit your posts