+ Reply to Thread
Results 1 to 2 of 2
  1. #1
    Administrators Duckload.us's Avatar
    Join Date
    Dec 2010
    Posts
    107,002
    Thanks
    9
    Thanked 111,490 Times in 51,829 Posts

    Question [][.ҡ]-Siberia [2018] 䫺-[BluRay.1080p.X264][Sound:Eng DTS & AAC/Thai AC3 5.1:Master.Modifide][SUB:Eng/Thai.SRT]




    ҴͧǢͧ ٤ ͤྪ÷˹价Ӣ͵ŧ֧ èҡѺԴҴԴͧ蹫С͹
    ҧ͡Ǥ͡͡Ѻ͹ѧ䫺

    Format : Matroska
    Format version : Version 4
    File size : 4.20 GiB
    Duration : 1 h 44 min
    Overall bit rate : 5 746 kb/s
    Movie name : Siberia.2018.1080p.BluRay.x264-[SUPER HQ][email protected] CUP
    Encoded date : UTC 2019-09-12 08:32:32
    Writing application : mkvmerge v37.0.0 ('Leave It') 64-bit
    Writing library : libebml v1.3.9 + libmatroska v1.5.2
    Cover : Yes
    Attachments : cover.jpg

    Video
    ID : 1
    Format : AVC
    Format/Info : Advanced Video Codec
    Format profile : [email protected]
    Format settings : CABAC / 1 Ref Frames
    Format settings, CABAC : Yes
    Format settings, Reference frames : 1 frame
    Format settings, GOP : M=1, N=25
    Codec ID : V_MPEG4/ISO/AVC
    Duration : 1 h 44 min
    Bit rate mode : Constant
    Bit rate : 4 000 kb/s
    Width : 1 920 pixels
    Height : 800 pixels
    Display aspect ratio : 2.40:1
    Frame rate mode : Constant
    Frame rate : 29.970 (30000/1001) FPS
    Color space : YUV
    Chroma subsampling : 4:2:0
    Bit depth : 8 bits
    Scan type : Progressive
    Bits/(Pixel*Frame) : 0.087
    Stream size : 2.92 GiB (70%)
    Title : Siberia.2018.1080p.BluRay.x264-[SUPER HQ][email protected] CUP
    Language : English
    Default : Yes
    Forced : No

    Audio #1
    ID : 2
    Format : AC-3
    Format/Info : Audio Coding 3
    Commercial name : Dolby Digital
    Codec ID : A_AC3
    Duration : 1 h 44 min
    Bit rate mode : Constant
    Bit rate : 640 kb/s
    Channel(s) : 6 channels
    Channel layout : L R C LFE Ls Rs
    Sampling rate : 44.1 kHz
    Frame rate : 28.711 FPS (1536 SPF)
    Bit depth : 16 bits
    Compression mode : Lossy
    Stream size : 479 MiB (11%)
    Title : 5.1 AC3 Thai 640 K 479m
    Language : Thai
    Service kind : Complete Main
    Default : Yes
    Forced : No

    Audio #2
    ID : 3
    Format : DTS
    Format/Info : Digital Theater Systems
    Codec ID : A_DTS
    Duration : 1 h 44 min
    Bit rate mode : Constant
    Bit rate : 911 kb/s
    Channel(s) : 6 channels
    Channel layout : C L R Ls Rs LFE
    Sampling rate : 11.025 kHz
    Frame rate : 10.767 FPS (1024 SPF)
    Bit depth : 16 bits
    Compression mode : Lossy
    Stream size : 683 MiB (16%)
    Title : DTS 5.1 Eng 911K 682M
    Language : English
    Default : No
    Forced : No

    Audio #3
    ID : 4
    Format : AAC LC
    Format/Info : Advanced Audio Codec Low Complexity
    Codec ID : A_AAC-2
    Duration : 1 h 44 min
    Bit rate : 192 kb/s
    Channel(s) : 2 channels
    Channel layout : L R
    Sampling rate : 44.1 kHz
    Frame rate : 43.066 FPS (1024 SPF)
    Compression mode : Lossy
    Stream size : 145 MiB (3%)
    Title : 2.0 AAC 192K 145M
    Default : No
    Forced : No

    Text #1
    ID : 5
    Format : UTF-8
    Codec ID : S_TEXT/UTF8
    Codec ID/Info : UTF-8 Plain Text
    Duration : 1 h 42 min
    Bit rate : 53 b/s
    Count of elements : 662
    Stream size : 40.0 KiB (0%)
    Title : SRT
    Language : Thai
    Default : Yes
    Forced : No

    Text #2
    ID : 6
    Format : UTF-8
    Codec ID : S_TEXT/UTF8
    Codec ID/Info : UTF-8 Plain Text
    Duration : 1 h 32 min
    Bit rate : 26 b/s
    Count of elements : 606
    Stream size : 18.3 KiB (0%)
    Title : SRT
    Language : English
    Default : No
    Forced : No

    Text #3
    ID : 7
    Format : UTF-8
    Codec ID : S_TEXT/UTF8
    Codec ID/Info : UTF-8 Plain Text
    Duration : 1 h 37 min
    Bit rate : 29 b/s
    Count of elements : 743
    Stream size : 20.9 KiB (0%)
    Title : SRT-Hearing Impaired=麡ͧҧ§
    Language : English
    Default : No
    Forced : No





    Download: cornfile
    http://cornfile.com/u1og566zz49b
    Download: mekafile
    http://www.mekafile.com/dl.php?f=Qcdf10bYWDsj

  2. The Following 5 Users Say Thank You to Duckload.us For This Useful Post:

    amorn wichian (09-21-2019), apichartdear (09-15-2019), noi54 (09-15-2019), smakha (09-13-2019), spiderpud2 (09-12-2019)

  3. #2
    Senior Member
    Join Date
    Jun 2014
    Posts
    992
    Thanks
    0
    Thanked 0 Times in 0 Posts
    ͺسѺ

Thread Information

Users Browsing this Thread

There are currently 1 users browsing this thread. (0 members and 1 guests)

     

Posting Permissions

  • You may not post new threads
  • You may not post replies
  • You may not post attachments
  • You may not edit your posts