+ Reply to Thread
Results 1 to 3 of 3
  1. #1
    Administrators Duckload.us's Avatar
    Join Date
    Dec 2010
    Posts
    107,002
    Thanks
    9
    Thanked 111,490 Times in 51,829 Posts

    Question [ฝรั่ง]-Toy Story 4 [2019] 1080p AAC-2 [WEB-DL]-[Soundtrack/Sub ENG]



    วู้ดดี้มักมั่นใจในจุดที่เขาอยู่ในโลกใบนี้ และสิ่งสำคัญอันดับแรกของเขาคือการดูแลเด็กๆของเขา ไม่ว่าจะเป็นแอนดี้ หรือบอนนี่ แต่เมื่อบอนนี่ได้นำของเล่นชิ้นใหม่ที่ไม่เต็มใจจะเป ็นของเล่นที่ชื่อ "ฟอร์คกี้" มาสู่ห้องของเธอ การเดินทางผจญภัยตามท้องถนนไปกับเพื่อนเก่าและใหม่จะ ทำให้วู้ดดี้เห็นว่าโลกนี้ใหญ่โตแค่ไหนสำหรับของเล่น

    Format : Matroska
    Format version : Version 4
    File size : 3.94 GiB
    Duration : 1 h 39 min
    Overall bit rate : 5 655 kb/s
    Movie name : Toy Story 4
    Encoded date : UTC 2019-09-15 04:32:34
    Writing application : mkvmerge v26.0.0 ('In The Game') 64-bit
    Writing library : libebml v1.3.6 + libmatroska v1.4.9
    Attachments : Poster.jpg

    Video
    ID : 1
    Format : AVC
    Format/Info : Advanced Video Codec
    Format profile : [email protected]
    Format settings : CABAC / 4 Ref Frames
    Format settings, CABAC : Yes
    Format settings, Reference frames : 4 frames
    Codec ID : V_MPEG4/ISO/AVC
    Duration : 1 h 39 min
    Bit rate : 5 446 kb/s
    Width : 1 920 pixels
    Height : 800 pixels
    Display aspect ratio : 2.40:1
    Frame rate mode : Constant
    Frame rate : 23.976 (23976/1000) FPS
    Original frame rate : 23.976 (24000/1001) FPS
    Color space : YUV
    Chroma subsampling : 4:2:0
    Bit depth : 8 bits
    Scan type : Progressive
    Bits/(Pixel*Frame) : 0.148
    Stream size : 3.77 GiB (95%)
    Title : Toy.Story.4.2019.1080p.WEBRip.x264.AAC2.0-SHITBOX
    Language : English
    Default : Yes
    Forced : No

    Audio
    ID : 2
    Format : AAC LC
    Format/Info : Advanced Audio Codec Low Complexity
    Codec ID : A_AAC-2
    Duration : 1 h 39 min
    Bit rate : 256 kb/s
    Channel(s) : 2 channels
    Channel layout : L R
    Sampling rate : 48.0 kHz
    Frame rate : 46.875 FPS (1024 SPF)
    Compression mode : Lossy
    Delay relative to video : 24 ms
    Stream size : 181 MiB (4%)
    Title : Toy.Story.4.2019.1080p.WEBRip.x264.AAC2.0-SHITBOX
    Language : English
    Default : Yes
    Forced : No

    Text
    ID : 3
    Format : ASS
    Codec ID : S_TEXT/ASS
    Codec ID/Info : Advanced Sub Station Alpha
    Duration : 1 h 39 min
    Bit rate : 120 b/s
    Count of elements : 1813
    Compression mode : Lossless
    Stream size : 87.2 KiB (0%)
    Language : English
    Default : Yes
    Forced : No





    Download: cornfile
    http://cornfile.com/flfp2z8k33w7
    Download: mekafile
    http://www.mekafile.com/dl.php?f=HSec91bZ4d3s

  2. The Following User Says Thank You to Duckload.us For This Useful Post:

    Tellmon (09-16-2019)

  3. #2
    Senior Member
    Join Date
    Jun 2014
    Posts
    992
    Thanks
    0
    Thanked 0 Times in 0 Posts
    ขอบคุณครับ

  4. #3
    Member
    Join Date
    Apr 2016
    Posts
    42
    Thanks
    7
    Thanked 0 Times in 0 Posts
    ขอ...Brave นักรบสาวหัวใจมหากาฬ.. ดัวยครับ รอนานแสนนาน...ๆๆๆๆ

+ Reply to Thread

Thread Information

Users Browsing this Thread

There are currently 1 users browsing this thread. (0 members and 1 guests)

     

Posting Permissions

  • You may not post new threads
  • You may not post replies
  • You may not post attachments
  • You may not edit your posts