+ Reply to Thread
Results 1 to 3 of 3
  1. #1
    Administrators Duckload.us's Avatar
    Join Date
    Dec 2010
    Posts
    107,002
    Thanks
    9
    Thanked 111,490 Times in 51,829 Posts

    Question [จาก NETFLIX] [ฝรั่ง]-Aterrados (2017) คดีผวาซ่อนเงื่อน [พากย์:สเปน][SUB:ไทย+อังกฤษ][1080p]



    Credit : Argon

    เหตุการณ์ชวนขนหัวลุกที่เกิดขึ้นในบัวโนสไอเรสทำให้น ักสืบเรื่องเหนือธรรมชาติและอดีตตำรวจต้องทำคดีสุดสะ พรึง



    เป็นเรื่องราวเกี่ยวกับ บ้านผีสิง 3 หลังของอาร์เจนติน่า 2 หลังแรกเป็นบ้านแฝดที่มีผนังเชื่อมกัน ส่วนหลังที่ 3 อยู่ตรงข้ามกับบ้าน 2 หลังแรก
    บ้านหลังที่ 1 เป็นบ้านของฮวนกับภรรยา ฮวนกำลังหัวเสียกับเสียงเคาะผนังปึงปังตอนกลางคืน เขาเชื่อว่ามันต้องเป็นฝีมือของเพื่อนบ้านตัวดีอย่าง วอลเตอร์ ที่อยู่บ้านแฝดอีกหลังแน่ๆ แต่ ..... มันจะเป็นฝีมือของวอลเตอร์จริงเหรอ
    บ้านหลังที่ 2 เป็นบ้านของวอลเตอร์ เขาต้องนอนอย่างหวาดผวา เพราะทุกครั้งที่เขาตื่นมา เตียงที่เขานอนมันถูกเคลื่อนย้ายเสมอ
    บ้านหลังที่ 3 เป็นบ้านของอลิเซีย เธอกำลังระทมทุกข์จากการสูญเสียลูกชายสุดที่รัก ........ จนกระทั่ง 4 วันหลังจากนั้น

    Format : Matroska
    Format version : Version 4 / Version 2
    File size : 3.62 GiB
    Duration : 1 h 27 min
    Overall bit rate : 5 902 kb/s
    Movie name : [email protected]
    Encoded date : UTC 2019-09-15 05:20:28
    Writing application : mkvmerge v24.0.0 ('Beyond The Pale') 64-bit
    Writing library : libebml v1.3.6 + libmatroska v1.4.9

    Video
    ID : 1
    Format : AVC
    Format/Info : Advanced Video Codec
    Format profile : [email protected]
    Format settings, CABAC : Yes
    Format settings, RefFrames : 3 frames
    Codec ID : V_MPEG4/ISO/AVC
    Duration : 1 h 27 min
    Bit rate : 5 767 kb/s
    Width : 1 920 pixels
    Height : 1 080 pixels
    Display aspect ratio : 16:9
    Frame rate mode : Constant
    Frame rate : 23.976 (24000/1001) FPS
    Color space : YUV
    Chroma subsampling : 4:2:0
    Bit depth : 8 bits
    Scan type : Progressive
    Bits/(Pixel*Frame) : 0.116
    Stream size : 3.54 GiB (98%)
    Default : Yes
    Forced : No
    Comment : NETFLIX BY ARGON

    Audio
    ID : 2
    Format : AAC
    Format/Info : Advanced Audio Codec
    Format profile : HE-AAC / LC
    Codec ID : A_AAC
    Duration : 1 h 27 min
    Bit rate : 96.0 kb/s
    Channel(s) : 2 channels
    Channel positions : Front: L R
    Sampling rate : 48.0 kHz / 24.0 kHz
    Frame rate : 23.438 FPS (1024 SPF)
    Compression mode : Lossy
    Stream size : 59.4 MiB (2%)
    Title : SPA AAC
    Language : Spanish
    Default : Yes
    Forced : No

    Text #1
    ID : 3
    Format : PGS
    Muxing mode : zlib
    Codec ID : S_HDMV/PGS
    Codec ID/Info : Picture based subtitle format used on BDs/HD-DVDs
    Duration : 1 h 25 min
    Bit rate : 28.7 kb/s
    Count of elements : 1622
    Stream size : 17.5 MiB (0%)
    Title : TH_PGS
    Language : Thai
    Default : Yes
    Forced : No

    Text #2
    ID : 4
    Format : VobSub
    Muxing mode : zlib
    Codec ID : S_VOBSUB
    Codec ID/Info : Picture based subtitle format used on DVDs
    Duration : 1 h 25 min
    Bit rate : 5 761 b/s
    Count of elements : 811
    Stream size : 3.53 MiB (0%)
    Title : TH_VOBSUB
    Language : Thai
    Default : No
    Forced : No

    Text #3
    ID : 5
    Format : VobSub
    Muxing mode : zlib
    Codec ID : S_VOBSUB
    Codec ID/Info : Picture based subtitle format used on DVDs
    Duration : 1 h 25 min
    Bit rate : 5 758 b/s
    Count of elements : 811
    Stream size : 3.52 MiB (0%)
    Title : TH_VOBSUB_YELLOW
    Language : Thai
    Default : No
    Forced : No

    Text #4
    ID : 6
    Format : PGS
    Muxing mode : zlib
    Codec ID : S_HDMV/PGS
    Codec ID/Info : Picture based subtitle format used on BDs/HD-DVDs
    Duration : 1 h 25 min
    Bit rate : 26.6 kb/s
    Count of elements : 1486
    Stream size : 16.3 MiB (0%)
    Title : EN_PGS
    Language : English
    Default : No
    Forced : No








    Download: cornfile
    http://cornfile.com/gxs66a9754k8
    Download: mekafile
    http://www.mekafile.com/dl.php?f=hV997cbZ6uSm

  2. The Following 4 Users Say Thank You to Duckload.us For This Useful Post:

    jackjangri (10-02-2019), noi54 (09-16-2019), smakha (09-17-2019), Wesker_TOT (09-17-2019)

  3. #2
    Senior Member
    Join Date
    Dec 2013
    Posts
    1,800
    Thanks
    3,745
    Thanked 0 Times in 0 Posts
    ขอบคุณครับ...

  4. #3
    Senior Member
    Join Date
    Jul 2012
    Posts
    6,218
    Thanks
    0
    Thanked 0 Times in 0 Posts
    ขอบคุณมากจ้า

+ Reply to Thread

Thread Information

Users Browsing this Thread

There are currently 1 users browsing this thread. (0 members and 1 guests)

     

Posting Permissions

  • You may not post new threads
  • You may not post replies
  • You may not post attachments
  • You may not edit your posts