+ Reply to Thread
Results 1 to 3 of 3
  1. #1
    Administrators Duckload.us's Avatar
    Join Date
    Dec 2010
    Posts
    107,002
    Thanks
    9
    Thanked 111,490 Times in 51,829 Posts

    Question [ฝรั่ง]-[มาสเตอร์] The Whole Truth (2016)-พลิกปมฆาตกรรม นำแสดงโดย Keanu Reeves, Renee Zellweger, Gugu Mbatha-Raw, Jim Belushi-HDTV.H.264.720p. [Rip]-[พากย์ไทย]



    ริชาร์ด แรมซีย์ (คีอานู รีฟส์) เป็นทนายที่ลอเร็ตตา (เรเน่ เซลเวเกอร์) เพื่อนของเขาขอร้องให้มาช่วยแก้ต่างให้กับไมค์ ลูกชายของเธอ (เกเบรียล แบสโซ) ที่สารภาพว่าฆ่าพ่อเสียชีวิต แต่มื่อคดีถึงศาล ความจริงอันน่าตกใจของพ่อ (เจมส์ เบลูชี) ที่เป็นเหยื่อเริ่มเผยออกมาว่าเขาเป็นคนร้ายกาจแค่ไห น ริชาร์ดพยายามใช้หลักฐานเหล่านั้นช่วยให้ไมค์พ้นผิด แต่แล้วเพื่อนร่วมงานของไมค์ (กูกู เอ็มบาธา-รอว์) ก็เริ่มพบความไม่ชอบมาพากลบางอย่าง และคิดว่าอาจมีแต่เธอเท่านั้นที่เปิดเผยความจริงทั้ง หมดได้

    เสียงไทยเท่านั้น

    Format : Matroska
    Format version : Version 4
    File size : 2.63 GiB
    Duration : 1 h 29 min
    Overall bit rate : 4 218 kb/s
    Encoded date : UTC 2017-11-22 23:17:08
    Writing application : mkvmerge v18.0.0 ('Apricity') 64-bit
    Writing library : libebml v1.3.5 + libmatroska v1.4.8

    Video
    ID : 1
    Format : AVC
    Format/Info : Advanced Video Codec
    Format profile : [email protected]
    Format settings : CABAC / 1 Ref Frames
    Format settings, CABAC : Yes
    Format settings, Reference frames : 1 frame
    Codec ID : V_MPEG4/ISO/AVC
    Duration : 1 h 29 min
    Bit rate : 4 021 kb/s
    Width : 1 280 pixels
    Height : 720 pixels
    Display aspect ratio : 16:9
    Frame rate mode : Constant
    Frame rate : 23.976 (23976/1000) FPS
    Original frame rate : 23.976 (24000/1001) FPS
    Color space : YUV
    Chroma subsampling : 4:2:0
    Bit depth : 8 bits
    Scan type : Progressive
    Bits/(Pixel*Frame) : 0.182
    Stream size : 2.50 GiB (95%)
    Default : Yes
    Forced : No

    Audio
    ID : 2
    Format : AAC LC
    Format/Info : Advanced Audio Codec Low Complexity
    Codec ID : A_AAC-2
    Duration : 1 h 29 min
    Bit rate : 192 kb/s
    Channel(s) : 2 channels
    Channel layout : L R
    Sampling rate : 48.0 kHz
    Frame rate : 46.875 FPS (1024 SPF)
    Compression mode : Lossy
    Delay relative to video : 21 ms
    Stream size : 124 MiB (5%)
    Default : Yes
    Forced : No





    Download: cornfile
    http://cornfile.com/7dvqahnfl78e
    Download: mekafile
    http://www.mekafile.com/dl.php?f=iz275dbZbJV1

  2. The Following 2 Users Say Thank You to Duckload.us For This Useful Post:

    apichartdear (09-18-2019), smakha (09-20-2019)

  3. #2
    Senior Member
    Join Date
    Jun 2014
    Posts
    992
    Thanks
    0
    Thanked 0 Times in 0 Posts
    ขอบคุณครับ

  4. #3
    Senior Member
    Join Date
    Jul 2012
    Posts
    6,218
    Thanks
    0
    Thanked 0 Times in 0 Posts
    ขอบคุณมากจ้า

+ Reply to Thread

Thread Information

Users Browsing this Thread

There are currently 1 users browsing this thread. (0 members and 1 guests)

     

Posting Permissions

  • You may not post new threads
  • You may not post replies
  • You may not post attachments
  • You may not edit your posts