+ Reply to Thread
Results 1 to 3 of 3
  1. #1
    Administrators Duckload.us's Avatar
    Join Date
    Dec 2010
    Posts
    107,002
    Thanks
    9
    Thanked 111,490 Times in 51,829 Posts

    Question (ฝรั่ง.ภาพ.มาสเตอร์.ENG+พากย์ไทยโรง)-TOY STORY 4 (2019) ทอย สตอรี่ 4 -[Hd.Rip.1080p.X264]⚜[Sound:Eng AC3 5.1 +Thai Rong AC3 2.0][SUB:Eng*SRT*]




    เรื่องราวการผจญภัยครั้งใหม่ของวู้ดดี้ ที่เริ่มต้นชีวิตในบ้านของเจ้าของคนใหม่ คือ บอนนี่ ซึ่งเธอได้ใช้ช้อนกึ่งส้อม ประดิษฐ์ออกมาเป็นของเล่นใหม่ที่ตั้งชื่อว่า ฟอร์คกี้ แต่เจ้าฟอร์คกี้ รู้ว่าแท้จริงเขาไม่ใช่ของเล่นแต่เป็นขยะ จึงอยากกลับไปสู่ชีวิตที่แท้จริง เดือดร้อนถึงวู้ดดี้ต้องตามกลับมา กลายเป็นการผจญภัยของเหล่าของเล่นครั้งใหม่ รวมถึงการกลับมาของโบ ของเล่นหวานใจของวู้ดดี้ที่เธอกลับมาในมาดใหม่เป็นสา วสุดแกร่ง

    Format : Matroska
    Format version : Version 4
    File size : 3.69 GiB
    Duration : 1 h 39 min
    Overall bit rate : 5 336 kb/s
    Movie name : [email protected] Cup
    Cover : Yes
    Attachments : cover.jpg

    Video
    ID : 1
    Format : AVC
    Format/Info : Advanced Video Codec
    Format profile : [email protected]
    Format settings : CABAC / 1 Ref Frames
    Format settings, CABAC : Yes
    Format settings, Reference : 1 frame
    Format settings, GOP : M=1, N=25
    Codec ID : V_MPEG4/ISO/AVC
    Duration : 1 h 39 min
    Bit rate mode : Constant
    Bit rate : 4 500 kb/s
    Width : 1 920 pixels
    Height : 800 pixels
    Display aspect ratio : 2.40:1
    Frame rate mode : Constant
    Frame rate : 29.970 (30000/1001) FPS
    Color space : YUV
    Chroma subsampling : 4:2:0
    Bit depth : 8 bits
    Scan type : Progressive
    Bits/(Pixel*Frame) : 0.098
    Stream size : 3.11 GiB (84%)
    Title : [email protected] Cup
    Language : English
    Default : Yes
    Forced : No

    Audio #1
    ID : 2
    Format : AC-3
    Format/Info : Audio Coding 3
    Commercial name : Dolby Digital
    Codec ID : A_AC3
    Duration : 1 h 39 min
    Bit rate mode : Constant
    Bit rate : 640 kb/s
    Channel(s) : 2 channels
    Channel layout : L R
    Sampling rate : 44.1 kHz
    Frame rate : 28.711 FPS (1536 SPF)
    Bit depth : 16 bits
    Compression mode : Lossy
    Stream size : 453 MiB (12%)
    Title : 2.0 AC3 THR 640k 453m
    Language : Thai
    Service kind : Complete Main
    Default : Yes
    Forced : No

    Audio #2
    ID : 3
    Format : AAC LC
    Format/Info : Advanced Audio Codec Low Complexity
    Codec ID : A_AAC-2
    Duration : 1 h 39 min
    Bit rate : 192 kb/s
    Channel(s) : 2 channels
    Channel layout : L R
    Sampling rate : 44.1 kHz
    Frame rate : 43.066 FPS (1024 SPF)
    Compression mode : Lossy
    Stream size : 138 MiB (4%)
    Title : 2.0 AAC 192K 138M
    Language : English
    Default : No
    Forced : No

    Text #1
    ID : 4
    Format : UTF-8
    Codec ID : S_TEXT/UTF8
    Codec ID/Info : UTF-8 Plain Text
    Duration : 1 h 34 min
    Bit rate : 69 b/s
    Count of elements : 1817
    Stream size : 47.9 KiB (0%)
    Title : SRT
    Language : English
    Default : Yes
    Forced : No

    Text #2
    ID : 5
    Format : UTF-8
    Codec ID : S_TEXT/UTF8
    Codec ID/Info : UTF-8 Plain Text
    Duration : 1 h 34 min
    Bit rate : 82 b/s
    Count of elements : 2071
    Stream size : 57.2 KiB (0%)
    Title : SRT-Hearing Impaired=ผู้บกพร่องทางเสียง
    Language : English
    Default : No
    Forced : No





    Download: cornfile
    http://cornfile.com/mpqspy2fg96b
    Download: mekafile
    http://www.mekafile.com/dl.php?f=ob77c6bZbTRO

  2. #2
    Senior Member
    Join Date
    Jun 2014
    Posts
    992
    Thanks
    0
    Thanked 0 Times in 0 Posts
    ขอบคุณครับ

  3. #3
    Senior Member
    Join Date
    Jul 2014
    Posts
    163
    Thanks
    5
    Thanked 0 Times in 0 Posts
    ขอบคุณมากครับ

+ Reply to Thread

Thread Information

Users Browsing this Thread

There are currently 1 users browsing this thread. (0 members and 1 guests)

     

Posting Permissions

  • You may not post new threads
  • You may not post replies
  • You may not post attachments
  • You may not edit your posts