+ Reply to Thread
Results 1 to 3 of 3
  1. #1
    Administrators Duckload.us's Avatar
    Join Date
    Dec 2010
    Posts
    107,002
    Thanks
    9
    Thanked 111,490 Times in 51,829 Posts

    Question [ฝรั่ง]-[**ใหม่ MINI HD 1080P**] Annabelle Comes Home (2019) : แอนนาเบลล์ ตุ๊กตาผีกลับบ้าน [1080p.WEB-DL.DD5.1.H264] [พากย์ไทยโรง BY...Mr.Captain+เสียงอังกฤษ 5.1] [บรรยายไทยตามพากษ์ไทย ดีกว่านี้ก็มาสเตอร์แล้วครับ + อังกฤษ + ซับไทย PGS คมชัด]



    Annabelle Comes Home เป็นภาคต่อลำดับที่สามของภาพยนตร์ชุด Annabelle จาก New Line Cinema ที่สร้างความสำเร็จครั้งใหญ่ไปทั่วโลก ด้วยความสยองของตุ๊กตาผีผู้โด่งดังจากจักรวาล เดอะ คอนเจอริ่ง นำทีมสร้างโดย แกรี่ ดาวเบอร์แมน ผู้เขียนบทภาพยนตร์ IT , The Nun , Annabelle และ Annabelle: Creation ที่คราวนี้ขอรับหน้าที่ผู้กำกับเป็นครั้งแรก ภายใต้การดูแลของ ปีเตอร์ ซาฟรานและเจมส์ วาน โปรดิวเซอร์คู่บุญจาก Aquaman ผู้บุกเบิกจักรวาลเดอะ คอนเจอริ่ง เพื่อป้องกันไม่ให้ปีศาจร้ายออกอาละวาดอีกครั้ง นักปีศาจวิทยา เอ็ดและลอร์เรน วอร์เรน ตัดสินใจขังตุ๊กตาผีเอาไว้ในห้องเก็บของในบ้านของพวก เขา โดยใส่ไว้ในตู้กระจกที่สะกดไว้ด้วยมนต์ศักดิ์สิทธิ์ข องศริสตจักร แต่ก็ไม่อาจหยุดยั้งความชั่วร้ายเอาไว้ได้ เมื่อคืนหนึ่งตุ๊กตาผีแอนนาเบลล์ปลุกปีศาจที่สิงสถิต ย์อยู่ในห้องนั้นขึ้นมา พร้อมออกล่าเหยื่อรายใหม่ที่เอ็ดและลอร์เรนคาดไม่ถึง นั่นคือ จูดี้ ลูกสาววัย 10 ขวบของพวกเขาและกลุ่มเพื่อนของเธอ...!!!l

    Code:
    Format                                   : Matroska
    Format version                           : Version 4
    File size                                : 4.02 GiB
    Duration                                 : 1 h 46 min
    Overall bit rate                         : 5 429 kb/s
    Movie name                               : Annabelle.Comes [email protected]
    
    Video
    ID                                       : 1
    Format                                   : AVC
    Format/Info                              : Advanced Video Codec
    Format profile                           : [email protected]
    Format settings                          : CABAC / 5 Ref Frames
    Format settings, CABAC                   : Yes
    Format settings, RefFrames               : 5 frames
    Codec ID                                 : V_MPEG4/ISO/AVC
    Duration                                 : 1 h 46 min
    Bit rate                                 : 4 612 kb/s
    Width                                    : 1 920 pixels
    Height                                   : 804 pixels
    Display aspect ratio                     : 2.40:1
    Frame rate mode                          : Constant
    Frame rate                               : 23.976 FPS
    Color space                              : YUV
    Chroma subsampling                       : 4:2:0
    Bit depth                                : 8 bits
    Scan type                                : Progressive
    Bits/(Pixel*Frame)                       : 0.125
    Stream size                              : 3.42 GiB (85%)
    Title                                    : Annabelle.Comes [email protected]
    Language                                 : English
    Default                                  : Yes
    Forced                                   : No
    Color range                              : Limited
    Color primaries                          : BT.709
    Transfer characteristics                 : BT.709
    Matrix coefficients                      : BT.709
    
    Audio #1
    ID                                       : 2
    Format                                   : AC-3
    Format/Info                              : Audio Coding 3
    Commercial name                          : Dolby Digital
    Codec ID                                 : A_AC3
    Duration                                 : 1 h 46 min
    Bit rate mode                            : Constant
    Bit rate                                 : 384 kb/s
    Channel(s)                               : 6 channels
    Channel layout                           : L R C LFE Ls Rs
    Sampling rate                            : 48.0 kHz
    Frame rate                               : 31.250 FPS (1536 SPF)
    Bit depth                                : 16 bits
    Compression mode                         : Lossy
    Stream size                              : 291 MiB (7%)
    Title                                    : English 5.1
    Language                                 : English
    Service kind                             : Complete Main
    Default                                  : Yes
    Forced                                   : No
    
    Audio #2
    ID                                       : 3
    Format                                   : AC-3
    Format/Info                              : Audio Coding 3
    Commercial name                          : Dolby Digital
    Codec ID                                 : A_AC3
    Duration                                 : 1 h 39 min
    Bit rate mode                            : Constant
    Bit rate                                 : 384 kb/s
    Channel(s)                               : 2 channels
    Channel layout                           : L R
    Sampling rate                            : 48.0 kHz
    Frame rate                               : 31.250 FPS (1536 SPF)
    Bit depth                                : 16 bits
    Compression mode                         : Lossy
    Stream size                              : 275 MiB (7%)
    Title                                    : ThaiRong 2.0 @ 384 kb/s By Mr.Captain
    Language                                 : Thai
    Service kind                             : Complete Main
    Default                                  : No
    Forced                                   : Yes
    
    Text #1
    ID                                       : 4
    Format                                   : UTF-8
    Codec ID                                 : S_TEXT/UTF8
    Codec ID/Info                            : UTF-8 Plain Text
    Duration                                 : 1 h 40 min
    Bit rate                                 : 34 b/s
    Count of elements                        : 956
    Stream size                              : 25.3 KiB (0%)
    Title                                    : English
    Language                                 : English
    Default                                  : No
    Forced                                   : No
    
    Text #2
    ID                                       : 5
    Format                                   : VobSub
    Muxing mode                              : zlib
    Codec ID                                 : S_VOBSUB
    Codec ID/Info                            : Picture based subtitle format used on DVDs
    Duration                                 : 1 h 45 min
    Bit rate                                 : 1 148 b/s
    Count of elements                        : 898
    Stream size                              : 889 KiB (0%)
    Title                                    : Thai 480P
    Language                                 : Thai
    Default                                  : No
    Forced                                   : No
    
    Text #3
    ID                                       : 6
    Format                                   : VobSub
    Muxing mode                              : zlib
    Codec ID                                 : S_VOBSUB
    Codec ID/Info                            : Picture based subtitle format used on DVDs
    Duration                                 : 1 h 45 min
    Bit rate                                 : 2 021 b/s
    Count of elements                        : 898
    Stream size                              : 1.53 MiB (0%)
    Title                                    : Thai 720P
    Language                                 : Thai
    Default                                  : No
    Forced                                   : No
    
    Text #4
    ID                                       : 7
    Format                                   : VobSub
    Muxing mode                              : zlib
    Codec ID                                 : S_VOBSUB
    Codec ID/Info                            : Picture based subtitle format used on DVDs
    Duration                                 : 1 h 45 min
    Bit rate                                 : 3 284 b/s
    Count of elements                        : 898
    Stream size                              : 2.49 MiB (0%)
    Title                                    : Thai 1080P
    Language                                 : Thai
    Default                                  : No
    Forced                                   : No
    
    Text #5
    ID                                       : 8
    Format                                   : VobSub
    Muxing mode                              : zlib
    Codec ID                                 : S_VOBSUB
    Codec ID/Info                            : Picture based subtitle format used on DVDs
    Duration                                 : 1 h 45 min
    Bit rate                                 : 3 885 b/s
    Count of elements                        : 898
    Stream size                              : 2.94 MiB (0%)
    Title                                    : Thai 1080P BIG
    Language                                 : Thai
    Default                                  : No
    Forced                                   : No
    
    Text #6
    ID                                       : 9
    Format                                   : VobSub
    Muxing mode                              : zlib
    Codec ID                                 : S_VOBSUB
    Codec ID/Info                            : Picture based subtitle format used on DVDs
    Duration                                 : 1 h 45 min
    Bit rate                                 : 3 285 b/s
    Count of elements                        : 898
    Stream size                              : 2.49 MiB (0%)
    Title                                    : Thai 1080P OUT
    Language                                 : Thai
    Default                                  : No
    Forced                                   : No
    
    Text #7
    ID                                       : 10
    Format                                   : VobSub
    Muxing mode                              : zlib
    Codec ID                                 : S_VOBSUB
    Codec ID/Info                            : Picture based subtitle format used on DVDs
    Duration                                 : 1 h 45 min
    Bit rate                                 : 3 884 b/s
    Count of elements                        : 898
    Stream size                              : 2.94 MiB (0%)
    Title                                    : Thai 1080P BIG[OUT]
    Language                                 : Thai
    Default                                  : No
    Forced                                   : No
    
    Text #8
    ID                                       : 11
    Format                                   : VobSub
    Muxing mode                              : zlib
    Codec ID                                 : S_VOBSUB
    Codec ID/Info                            : Picture based subtitle format used on DVDs
    Duration                                 : 1 h 45 min
    Bit rate                                 : 3 289 b/s
    Count of elements                        : 898
    Stream size                              : 2.49 MiB (0%)
    Title                                    : Thai 1080P Yellow
    Language                                 : Thai
    Default                                  : No
    Forced                                   : No
    
    Text #9
    ID                                       : 12
    Format                                   : PGS
    Muxing mode                              : zlib
    Codec ID                                 : S_HDMV/PGS
    Codec ID/Info                            : Picture based subtitle format used on BDs/HD-DVDs
    Duration                                 : 1 h 45 min
    Bit rate                                 : 11.3 kb/s
    Count of elements                        : 1798
    Stream size                              : 8.59 MiB (0%)
    Title                                    : Thai PGS
    Language                                 : Thai
    Default                                  : Yes
    Forced                                   : No
    
    Text #10
    ID                                       : 13
    Format                                   : PGS
    Muxing mode                              : zlib
    Codec ID                                 : S_HDMV/PGS
    Codec ID/Info                            : Picture based subtitle format used on BDs/HD-DVDs
    Duration                                 : 1 h 45 min
    Bit rate                                 : 13.3 kb/s
    Count of elements                        : 1798
    Stream size                              : 10.0 MiB (0%)
    Title                                    : Thai PGS BIG
    Language                                 : Thai
    Default                                  : No
    Forced                                   : No
    
    Text #11
    ID                                       : 14
    Format                                   : PGS
    Muxing mode                              : zlib
    Codec ID                                 : S_HDMV/PGS
    Codec ID/Info                            : Picture based subtitle format used on BDs/HD-DVDs
    Duration                                 : 1 h 45 min
    Bit rate                                 : 11.3 kb/s
    Count of elements                        : 1798
    Stream size                              : 8.59 MiB (0%)
    Title                                    : Thai PGS OUT
    Language                                 : Thai
    Default                                  : No
    Forced                                   : No
    
    Text #12
    ID                                       : 15
    Format                                   : PGS
    Muxing mode                              : zlib
    Codec ID                                 : S_HDMV/PGS
    Codec ID/Info                            : Picture based subtitle format used on BDs/HD-DVDs
    Duration                                 : 1 h 45 min
    Bit rate                                 : 11.4 kb/s
    Count of elements                        : 1798
    Stream size                              : 8.64 MiB (0%)
    Title                                    : Thai PGS Yellow
    Language                                 : Thai
    Default                                  : No
     Forced                                   : No


















    Download: cornfile
    http://cornfile.com/2krhhb98f66q
    Download: mekafile
    http://www.mekafile.com/dl.php?f=Gj036cbZerES

  2. The Following 2 Users Say Thank You to Duckload.us For This Useful Post:

    Tellmon (09-23-2019), Wesker_TOT (09-20-2019)

  3. #2
    Senior Member
    Join Date
    Dec 2013
    Posts
    1,800
    Thanks
    3,745
    Thanked 0 Times in 0 Posts
    ขอบคุณครับ...

  4. #3
    Senior Member
    Join Date
    Jun 2014
    Posts
    992
    Thanks
    0
    Thanked 0 Times in 0 Posts
    ขอบคุณครับ

+ Reply to Thread

Thread Information

Users Browsing this Thread

There are currently 1 users browsing this thread. (0 members and 1 guests)

     

Posting Permissions

  • You may not post new threads
  • You may not post replies
  • You may not post attachments
  • You may not edit your posts