+ Reply to Thread
Results 1 to 3 of 3
  1. #1
    Administrators Duckload.us's Avatar
    Join Date
    Dec 2010
    Posts
    107,002
    Thanks
    9
    Thanked 111,490 Times in 51,829 Posts

    Thumbs up [ฝรั่ง]--The 100 Season 5-6 -Encode.H.264.720p. [From TV]-[Soundtrack บรรยายไทย (แปล)]



    เรื่องราวของ THE 100 ในซีซันนี้
    พวกเขาตื่นขึ้นมาจากการหลับไหลในอนาคตอันไกลโพ้น พวกเขาพบดวงดาวดวงใหม่ที่คล้ายกับโลกจากการค้นหาของม อนตี้และลูกชาย สิ่งที่พวกคลากจะพบเจอจากดาวดวงนี้คืออะไร จะอยู่รอดได้หรือไม่ นั่นเป็นสิ่งที่คุณจะต้องติดตามชม ใน THE 100 SEASON 6

    Format : MPEG-4
    Format profile : Base Media
    Codec ID : isom (mp41)
    File size : 1.62 GiB
    Duration : 41 min 53 s
    Overall bit rate mode : Variable
    Overall bit rate : 5 552 kb/s
    Encoded date : UTC 2019-05-05 11:32:03
    Tagged date : UTC 2019-05-05 11:32:03
    Writing application : Bandicam 4.3.1.1490 / GDI / Nvidia NVENC

    Video
    ID : 1
    Format : AVC
    Format/Info : Advanced Video Codec
    Format profile : [email protected]
    Format settings : CABAC / 1 Ref Frames
    Format settings, CABAC : Yes
    Format settings, Reference frames : 1 frame
    Codec ID : avc1
    Codec ID/Info : Advanced Video Coding
    Duration : 41 min 53 s
    Bit rate : 5 348 kb/s
    Width : 1 920 pixels
    Height : 1 080 pixels
    Display aspect ratio : 16:9
    Frame rate mode : Variable
    Frame rate : 30.000 FPS
    Minimum frame rate : 14.993 FPS
    Maximum frame rate : 30.030 FPS
    Color space : YUV
    Chroma subsampling : 4:2:0
    Bit depth : 8 bits
    Scan type : Progressive
    Bits/(Pixel*Frame) : 0.086
    Stream size : 1.56 GiB (96%)
    Language : English
    Encoded date : UTC 2019-05-05 11:32:03
    Tagged date : UTC 2019-05-05 11:32:03
    Codec configuration box : avcC

    Audio
    ID : 2
    Format : AAC LC
    Format/Info : Advanced Audio Codec Low Complexity
    Codec ID : mp4a-40-2
    Duration : 41 min 53 s
    Duration_LastFrame : -8 ms
    Bit rate mode : Variable
    Bit rate : 192 kb/s
    Maximum bit rate : 300 kb/s
    Channel(s) : 2 channels
    Channel layout : L R
    Sampling rate : 48.0 kHz
    Frame rate : 46.875 FPS (1024 SPF)
    Compression mode : Lossy
    Stream size : 58.6 MiB (4%)
    Language : English
    Encoded date : UTC 2019-05-05 11:32:03
    Tagged date : UTC 2019-05-05 11:32:03



    Download: filecondo
    5 http://www.filecondo.com/dl.php?f=m0afc41IaZdy
    6 http://www.filecondo.com/dl.php?f=Jd684a1IaZfI

    Download: cornfile
    The 100 S5E10 - The Warriors Will.MP4 - 428.8 MB
    The 100 S5E8-How We Get To Peace.mp4 - 340.6 MB
    The 100 S6 EP1-SanctumTH.mp4 - 1.6 GB
    The 100 S6 EP12-Adjustment ProtocolTH.mp4 - 392.4 MB
    The 100 S6 EP2-Red Sun RisingTH.mp4 - 1.6 GB
    The 100 S6 EP3-The Children of GabrielTH.mp4 - 651.7 MB
    The 100 S6 EP4-The Face Behind the GlassTH.mp4 - 649.3 MB
    The 100 S6 EP5-The Gospel of JosephineTH.mp4 - 462.2 MB
    The 100 S6 EP6-Memento MoriTH.mp4 - 441.2 MB
    The100 D6 Ep7-NevermindTH.mp4 - 420.1 MB
    The100 S5E1- Eden.mp4 - 632.7 MB
    The100 S5E11-The Dark Year.mp4 - 635.0 MB
    The100 S5E12-Damocles Part 1.MP4 - 714.3 MB
    The100 S5E13-Damocles Part 2.mp4 - 476.5 MB
    The100 S5E2- Red Queen.MP4 - 397.8 MB
    The100 S5E3- Sleeping Giants.mp4 - 392.6 MB
    The100 S5E4- Pandora s Box.mp4 - 429.1 MB
    The100 S5E5 - Shifting Sands.mp4 - 427.8 MB
    The100 S5E6-Exit Wounds.mp4 - 427.7 MB
    The100 S5E7-Acceptable Losses.mp4 - 341.3 MB
    The100 S5E9-Sic Semper Tyrannis.mp4 - 775.6 MB
    The100 S6 Ep10-MatryoshkaTH.mp4 - 447.5 MB
    The100 S6 Ep11-Ashes to AshesTH.mp4 - 647.5 MB
    The100 S6 Ep13-The Blood of SanctumTH.mp4 - 471.8 MB
    The100 S6 Ep9-What You Take with YouTH.mp4 - 443.9 MB
    The100 SS6 Ep8-The Old Man and the AnomalyTH.mp4 - 488.9 MB

  2. The Following User Says Thank You to Duckload.us For This Useful Post:

    gaszolineskywalker (09-25-2019)

  3. #2
    Senior Member
    Join Date
    Oct 2012
    Posts
    760
    Thanks
    1,697
    Thanked 0 Times in 0 Posts
    ขอบคุณครับ

  4. #3
    Junior Member
    Join Date
    Aug 2014
    Posts
    6
    Thanks
    1
    Thanked 0 Times in 0 Posts
    -ขอบคุณมากครับ

+ Reply to Thread

Thread Information

Users Browsing this Thread

There are currently 1 users browsing this thread. (0 members and 1 guests)

     

Posting Permissions

  • You may not post new threads
  • You may not post replies
  • You may not post attachments
  • You may not edit your posts