+ Reply to Thread
Results 1 to 3 of 3
  1. #1
    Administrators Duckload.us's Avatar
    Join Date
    Dec 2010
    Posts
    107,002
    Thanks
    9
    Thanked 111,490 Times in 51,829 Posts

    Question [ภาพชัด]Fast.and.Furious.Presents.Hobbs.and.Shaw.2019.1080 p.KORSUB.HDRip.x264.AAC2.0-THR.AC3-2.0[เสียงไทยโรง]



    Fast And Furious Hobbs and Shaw นับตั้งแต่ที่ ฮ็อบส์ เจ้าหน้าที่ผู้รักษากฎหมายเจ้าของร่างล่ำบึ้ก (จอห์นสัน) ผู้จงรักภักดีต่อองค์กรหน่วยรักษาความปลอดภัยทางการท ูตแห่งอเมริกาและชอว์ (สเตแธม) ชายนอกกฎหมาย อดีตเจ้าหน้าที่ทหารชั้นสูงของอังกฤษ ได้เผชิญหน้ากันเป็นครั้งแรกใน Fast & Furious 7 ในปี 2015 ทั้งคู่ก็ได้ปะทะกันทั้งด้วยคารมและหมัดด้วยความมุ่ง หมายที่จะโค่นอีกฝ่ายให้ได้
    แต่เมื่อบริกซ์ตัน (ไอดริส เอลบา) ผู้ชื่นชอบในลัทธิอนาธิปไตย และได้รับการปรับแต่งทางพันธุกรรมให้มีความสามารถสูง ขึ้น และมีอำนาจควบคุมภัยคุกคามร้ายกาจทางชีวะที่อาจเปลี่ ยนแปลงชีวิตของมนุษยชาติไปตลอดกาล และมีชัยเหนือเจ้าหน้าที่เอ็มไอซิกส์ผู้ชาญฉลาดและปร าศจากความกลัว (วาเนสซา เคอร์บี้จาก The Crown) ผู้บังเอิญเป็นน้องสาวของชอว์ ศัตรูคู่อาฆาตทั้งสองคนนี้ จึงจำเป็นต้องจับมือกันเพื่อโค่นล้มคนเพียงคนเดียวที ่อาจจะร้ายกาจยิ่งกว่าพวกเขา
    Hobbs & Shaw เป็นการกระแทกเปิดประตูใหม่สู่จักรวาล Fast เมื่อแอ็กชั่นของมันพุ่งทะยานไปทั่วโลก จากลอสแองเจลิสสู่ลอนดอน และจากเมืองร้างที่เต็มไปด้วยสารพิษอย่างเชอร์โนบิล สู่ความงามที่เขียวชอุ่มของซามัว!

    Format : AVC
    Format/Info : Advanced Video Codec
    Format profile : [email protected]
    Format settings : CABAC / 4 Ref Frames
    Format settings, CABAC : Yes
    Format settings, Reference fra : 4 frames
    Codec ID : V_MPEG4/ISO/AVC
    Duration : 2 h 9 min
    Bit rate : 5 500 kb/s
    Width : 1 920 pixels
    Height : 800 pixels
    Display aspect ratio : 2.40:1
    Frame rate mode : Constant
    Frame rate : 30.000 FPS
    Color space : YUV
    Chroma subsampling : 4:2:0
    Bit depth : 8 bits
    Scan type : Progressive
    Bits/(Pixel*Frame) : 0.119
    Stream size : 4.93 GiB (92%)
    Writing library : x264 core 148 r2795M aaa9aa8
    Encoding settings : cabac=1 / ref=4 / deblock=1:0:0 / analyse=0x3:0x113 / me=umh / subme=9 / psy=1 / psy_rd=1.00:0.00 / mixed_ref=1 / me_range=16 / chroma_me=1 / trellis=2 / 8x8dct=1 / cqm=0 / deadzone=21,11 / fast_pskip=1 / chroma_qp_offset=-2 / threads=72 / lookahead_threads=6 / sliced_threads=0 / nr=0 / decimate=1 / interlaced=0 / bluray_compat=0 / constrained_intra=0 / bframes=3 / b_pyramid=2 / b_adapt=2 / b_bias=0 / direct=3 / weightb=1 / open_gop=0 / weightp=2 / keyint=250 / keyint_min=25 / scenecut=40 / intra_refresh=0 / rc_lookahead=50 / rc=abr / mbtree=1 / bitrate=5500 / ratetol=1.0 / qcomp=0.60 / qpmin=0 / qpmax=69 / qpstep=4 / ip_ratio=1.40 / aq=1:1.00
    Default : Yes
    Forced : No

    Audio #1
    ID : 2
    Format : AC-3
    Format/Info : Audio Coding 3
    Commercial name : Dolby Digital
    Codec ID : A_AC3
    Duration : 2 h 9 min
    Bit rate mode : Constant
    Bit rate : 192 kb/s
    Channel(s) : 2 channels
    Channel layout : L R
    Sampling rate : 48.0 kHz
    Frame rate : 31.250 FPS (1536 SPF)
    Bit depth : 16 bits
    Compression mode : Lossy
    Delay relative to video : -43 ms
    Stream size : 178 MiB (3%)
    Language : Thai
    Service kind : Complete Main
    Default : Yes
    Forced : No

    Audio #2
    ID : 3
    Format : AAC LC
    Format/Info : Advanced Audio Codec Low Complexity
    Codec ID : A_AAC-2
    Duration : 2 h 9 min
    Bit rate : 256 kb/s
    Channel(s) : 2 channels
    Channel layout : L R
    Sampling rate : 48.0 kHz
    Frame rate : 46.875 FPS (1024 SPF)
    Compression mode : Lossy
    Delay relative to video : -43 ms
    Stream size : 237 MiB (4%)
    Language : English
    Default : No
    Forced : No





    Download: cornfile
    http://cornfile.com/n4vpc491u1rj
    Download: mekafile
    http://www.mekafile.com/dl.php?f=eO3a6ebZezpX

  2. The Following 2 Users Say Thank You to Duckload.us For This Useful Post:

    Tellmon (09-20-2019), virusring (09-20-2019)

  3. #2
    Senior Member
    Join Date
    Jun 2014
    Posts
    992
    Thanks
    0
    Thanked 0 Times in 0 Posts
    ขอบคุณครับ

  4. #3
    Senior Member
    Join Date
    Jul 2014
    Posts
    163
    Thanks
    5
    Thanked 0 Times in 0 Posts
    ขอบคุณมากครับ

+ Reply to Thread

Thread Information

Users Browsing this Thread

There are currently 1 users browsing this thread. (0 members and 1 guests)

     

Posting Permissions

  • You may not post new threads
  • You may not post replies
  • You may not post attachments
  • You may not edit your posts