+ Reply to Thread
Results 1 to 6 of 6
  1. #1
    Administrators Duckload.us's Avatar
    Join Date
    Dec 2010
    Posts
    107,002
    Thanks
    9
    Thanked 111,490 Times in 51,829 Posts

    Question [จีน]-[New MASTER]-The Legend of Zu [2018] ตำนานสงครามล้างพิภพ-Encode.H.264.1080p. [Modified]-[เสียง: Chinese DTS 5.1 และ AAC 2.0 / Thai AC3 5.1: Master]



    เรื่องย่อ
    The Legend of Zu หรือชื่อไทยว่า ตำนานสงครามล้างพิภพ (蜀 山 降 魔 传 , Shu Shan Xiang Mo Zhuan) ว่าด้วยเรื่องราวของสงครามระหว่างเทพเจ้าและจอมอสูร ที่มีโลกมนุษย์เป็นเดิมพัน

    Format : Matroska
    Format version : Version 4
    File size : 4.32 GiB
    Duration : 1 h 24 min
    Overall bit rate : 7 327 kb/s
    Movie name : The.Legend.Of.Zu.2018.1080p.BluRay.x264-[Super HQ][email protected] Cup
    Encoded date : UTC 2019-09-20 03:22:30
    Writing application : mkvmerge v37.0.0 ('Leave It') 64-bit
    Writing library : libebml v1.3.9 + libmatroska v1.5.2
    Cover : Yes
    Attachments : cover.jpg

    Video
    ID : 1
    Format : AVC
    Format/Info : Advanced Video Codec
    Format profile : [email protected]
    Format settings : CABAC / 1 Ref Frames
    Format settings, CABAC : Yes
    Format settings, Reference frames : 1 frame
    Format settings, GOP : M=1, N=25
    Codec ID : V_MPEG4/ISO/AVC
    Duration : 1 h 24 min
    Bit rate mode : Constant
    Bit rate : 5 500 kb/s
    Width : 1 920 pixels
    Height : 800 pixels
    Display aspect ratio : 2.40:1
    Frame rate mode : Constant
    Frame rate : 29.970 (30000/1001) FPS
    Color space : YUV
    Chroma subsampling : 4:2:0
    Bit depth : 8 bits
    Scan type : Progressive
    Bits/(Pixel*Frame) : 0.119
    Stream size : 3.24 GiB (75%)
    Title : The.Legend.Of.Zu.2018.1080p.BluRay.x264-[Super HQ][email protected] Cup
    Language : Chinese
    Default : Yes
    Forced : No

    Audio #1
    ID : 2
    Format : AC-3
    Format/Info : Audio Coding 3
    Commercial name : Dolby Digital
    Codec ID : A_AC3
    Duration : 1 h 24 min
    Bit rate mode : Constant
    Bit rate : 640 kb/s
    Channel(s) : 6 channels
    Channel layout : L R C LFE Ls Rs
    Sampling rate : 44.1 kHz
    Frame rate : 28.711 FPS (1536 SPF)
    Bit depth : 16 bits
    Compression mode : Lossy
    Stream size : 386 MiB (9%)
    Title : 5.1 AC3 Thai 640k 386m
    Language : Thai
    Service kind : Complete Main
    Default : Yes
    Forced : No

    Audio #2
    ID : 3
    Format : DTS
    Format/Info : Digital Theater Systems
    Codec ID : A_DTS
    Duration : 1 h 24 min
    Bit rate mode : Constant
    Bit rate : 992 kb/s
    Channel(s) : 6 channels
    Channel layout : C L R Ls Rs LFE
    Sampling rate : 12.0 kHz
    Frame rate : 11.719 FPS (1024 SPF)
    Bit depth : 16 bits
    Compression mode : Lossy
    Stream size : 599 MiB (14%)
    Title : 5.1 dts DTS 5.1 Chinese 1200-598m
    Language : Chinese
    Default : No
    Forced : No

    Audio #3
    ID : 4
    Format : AAC LC
    Format/Info : Advanced Audio Codec Low Complexity
    Codec ID : A_AAC-2
    Duration : 1 h 24 min
    Bit rate : 192 kb/s
    Channel(s) : 2 channels
    Channel layout : L R
    Sampling rate : 44.1 kHz
    Frame rate : 43.066 FPS (1024 SPF)
    Compression mode : Lossy
    Stream size : 118 MiB (3%)
    Title : 2.0 AAC Chinese 192k 118m
    Language : Chinese
    Default : No
    Forced : No

    Text
    ID : 5
    Format : UTF-8
    Codec ID : S_TEXT/UTF8
    Codec ID/Info : UTF-8 Plain Text
    Duration : 1 h 24 min
    Bit rate : 33 b/s
    Count of elements : 838
    Stream size : 20.4 KiB (0%)
    Title : SRT
    Language : English
    Default : Yes
    Forced : No





    Download: cornfile
    http://cornfile.com/0pnamtdw6sg2
    Download: mekafile
    http://www.mekafile.com/dl.php?f=Wvd55fbZgJUc

  2. The Following 5 Users Say Thank You to Duckload.us For This Useful Post:

    apichartdear (09-20-2019), gaszolineskywalker (09-23-2019), Jodz14 (09-21-2019), NaiWan (09-29-2019), noi54 (09-22-2019)

  3. #2
    Senior Member
    Join Date
    Jul 2014
    Posts
    163
    Thanks
    5
    Thanked 0 Times in 0 Posts

    Red face

    ขอบคุณมากครับ

  4. #3
    Senior Member
    Join Date
    Jun 2014
    Posts
    992
    Thanks
    0
    Thanked 0 Times in 0 Posts
    ขอบคุณครับ

  5. #4
    Senior Member
    Join Date
    Oct 2013
    Posts
    1,612
    Thanks
    0
    Thanked 0 Times in 0 Posts
    ขอบคุณครับ

  6. #5
    Senior Member
    Join Date
    Jul 2012
    Posts
    6,218
    Thanks
    0
    Thanked 0 Times in 0 Posts
    ขอบคุณมากจ้า

  7. #6
    Senior Member
    Join Date
    Oct 2012
    Posts
    760
    Thanks
    1,697
    Thanked 0 Times in 0 Posts
    ขอบคุณครับ

+ Reply to Thread

Thread Information

Users Browsing this Thread

There are currently 1 users browsing this thread. (0 members and 1 guests)

     

Posting Permissions

  • You may not post new threads
  • You may not post replies
  • You may not post attachments
  • You may not edit your posts