+ Reply to Thread
Results 1 to 2 of 2
  1. #1
    Administrators Duckload.us's Avatar
    Join Date
    Dec 2010
    Posts
    107,002
    Thanks
    9
    Thanked 111,490 Times in 51,829 Posts

    Angry [ฝรั่ง]-[V.1] RAMBO 5 LAST BLOOD (2019) แรมโบ้ 5 นักรบคนสุดท้าย-Encode.H.264.720p. [Modified]-[พากย์ไทยโรง]



    พบกับการปิดตำนานครั้งยิ่งใหญ่เกือบ 40 ปีของ แรมโบ้
    นักรบเดนตายด้วยภารกิจโค่นทรชนที่เดือดกว่า โหดกว่า ระห่ำกว่าเก่า “ซิลเวสเตอร์
    สตอลโลน” กลับมาสวมบทเป็น จอห์น แรมโบ้ อีกครั้งในรอบ 10 ปี
    ที่คราวนี้เขาได้กลับไปยังบ้านเกิดแสนสงบเพื่อหวังใช ้ชีวิตอย่างคนธรรมดา
    แต่ความสงบก็ถูกทำลายเมื่อเขาต้องเผชิญหน้ากับอดีตอั นโหดร้ายโดยมีแก๊งค้ายาชาวเม็กซิกันเป็นผู้จุดชนวน เมื่อพวกเขาจุดไฟสงคราม
    แรมโบ้ก็จะใช้ทักษะเก่าของนักรบเดนตายในการปิดฉากมัน

    Format : Matroska
    Format version : Version 4
    File size : 2.94 GiB
    Duration : 1 h 27 min
    Overall bit rate : 4 790 kb/s
    Movie name : Rambo 5 Last Blood (2019) V1.THR [email protected] Cup
    Encoded date : UTC 2019-09-20 11:44:00
    Writing application : mkvmerge v37.0.0 ('Leave It') 64-bit
    Writing library : libebml v1.3.9 + libmatroska v1.5.2
    Cover : Yes
    Attachments : cover.jpg

    Video
    ID : 1
    Format : AVC
    Format/Info : Advanced Video Codec
    Format profile : [email protected]
    Format settings : CABAC / 1 Ref Frames
    Format settings, CABAC : Yes
    Format settings, Reference frames : 1 frame
    Format settings, GOP : M=1, N=25
    Codec ID : V_MPEG4/ISO/AVC
    Duration : 1 h 27 min
    Bit rate mode : Constant
    Bit rate : 4 600 kb/s
    Width : 1 280 pixels
    Height : 532 pixels
    Display aspect ratio : 2.40:1
    Frame rate mode : Constant
    Frame rate : 29.970 (30000/1001) FPS
    Color space : YUV
    Chroma subsampling : 4:2:0
    Bit depth : 8 bits
    Scan type : Progressive
    Bits/(Pixel*Frame) : 0.225
    Stream size : 2.82 GiB (96%)
    Title : Rambo 5 Last Blood (2019) V1.THR [email protected] Cup
    Language : Thai
    Default : Yes
    Forced : No

    Audio
    ID : 2
    Format : AAC LC
    Format/Info : Advanced Audio Codec Low Complexity
    Codec ID : A_AAC-2
    Duration : 1 h 27 min
    Bit rate : 192 kb/s
    Channel(s) : 2 channels
    Channel layout : L R
    Sampling rate : 44.1 kHz
    Frame rate : 43.066 FPS (1024 SPF)
    Compression mode : Lossy
    Stream size : 120 MiB (4%)
    Title : Thr
    Language : Thai
    Default : Yes
    Forced : No







    Download: cornfile
    http://cornfile.com/34kjmd83250h
    Download: mekafile
    meka อัพไม่ได้ครับ หนังค่าย M

  2. #2
    Senior Member
    Join Date
    Jun 2014
    Posts
    992
    Thanks
    0
    Thanked 0 Times in 0 Posts
    ขอบคุณครับ

+ Reply to Thread

Thread Information

Users Browsing this Thread

There are currently 1 users browsing this thread. (0 members and 1 guests)

     

Posting Permissions

  • You may not post new threads
  • You may not post replies
  • You may not post attachments
  • You may not edit your posts