+ Reply to Thread
Results 1 to 4 of 4
  1. #1
    Administrators Duckload.us's Avatar
    Join Date
    Dec 2010
    Posts
    107,002
    Thanks
    9
    Thanked 111,490 Times in 51,829 Posts

    Question [ฝรั่ง]-[* ใหม่ MASTER*] The Secret Life of Pets 2 (2019) เรื่องลับแก๊งขนฟู 2 [ อังกฤษ 5.1 + ไทยมาสเตอร์ ] [ บรรยายไทย+อังกฤษ PGS คมชัด ]-WEB-DL.H.264.1080p. [Master]



    the Secret Life Of Pets เรื่องลับแก๊งขนฟู คือผลงานลำดับที่ 5 ซึ่งเป็นการจับมือกันระหว่างอิลลูมิเนชั่น เอนเตอร์เทนเมนต์ และยูนิเวอร์แซล พิคเจอร์ส ซึ่งจะมาเผยความลับว่าเหล่าสัตว์เลี้ยงทำอะไร ระหว่างที่เจ้าของไม่อยู่บ้าน ภาพยนตร์เรื่องนี้ ได้นักแสดงตลกชื่อดังอย่าง หลุยส์ ซี.เค., อีริค สโตนสตรีท และเควิน ฮาร์ท มาให้เสียงพากย์ โดยได้ คริส เรโนด์ จาก Despicable Me, Despicable Me 2 มารับหน้าที่ผู้กำกับเตรียมพบกับความน่ารักของเหล่าส ัตว์เลี้ยงแสนซน (สุดแสบ) ใน The Secret Life Of Pets เรื่องลับแก๊งขนฟู

    Format : Matroska
    Format version : Version 4
    File size : 3.43 GiB
    Duration : 1 h 26 min
    Overall bit rate : 5 706 kb/s
    Encoded date : UTC 2019-09-20 14:37:28
    Writing application : mkvmerge v37.0.0 ('Leave It') 64-bit
    Writing library : libebml v1.3.9 + libmatroska v1.5.2

    Video
    ID : 1
    Format : AVC
    Format/Info : Advanced Video Codec
    Format profile : [email protected]
    Format settings : CABAC / 4 Ref Frames
    Format settings, CABAC : Yes
    Format settings, Reference frames : 4 frames
    Codec ID : V_MPEG4/ISO/AVC
    Duration : 1 h 26 min
    Bit rate : 5 137 kb/s
    Width : 1 916 pixels
    Height : 1 028 pixels
    Display aspect ratio : 1.85:1
    Frame rate mode : Constant
    Frame rate : 23.976 (23976/1000) FPS
    Color space : YUV
    Chroma subsampling : 4:2:0
    Bit depth : 8 bits
    Scan type : Progressive
    Bits/(Pixel*Frame) : 0.109
    Stream size : 3.09 GiB (90%)
    Language : English
    Default : Yes
    Forced : No
    Color range : Limited
    Color primaries : BT.709
    Transfer characteristics : BT.709
    Matrix coefficients : BT.709

    Audio #1
    ID : 2
    Format : AC-3
    Format/Info : Audio Coding 3
    Commercial name : Dolby Digital
    Codec ID : A_AC3
    Duration : 1 h 26 min
    Bit rate mode : Constant
    Bit rate : 384 kb/s
    Channel(s) : 6 channels
    Channel layout : L R C LFE Ls Rs
    Sampling rate : 48.0 kHz
    Frame rate : 31.250 FPS (1536 SPF)
    Bit depth : 16 bits
    Compression mode : Lossy
    Delay relative to video : -42 ms
    Stream size : 236 MiB (7%)
    Title : Eng 5.1
    Language : English
    Service kind : Complete Main
    Default : Yes
    Forced : No

    Audio #2
    ID : 3
    Format : AAC LC
    Format/Info : Advanced Audio Codec Low Complexity
    Codec ID : A_AAC-2
    Duration : 1 h 26 min
    Bit rate : 127 kb/s
    Channel(s) : 2 channels
    Channel layout : L R
    Sampling rate : 48.0 kHz
    Frame rate : 46.875 FPS (1024 SPF)
    Compression mode : Lossy
    Delay relative to video : -42 ms
    Stream size : 78.0 MiB (2%)
    Title : Thai Master
    Language : Thai
    Default : No
    Forced : No

    Text #1
    ID : 4
    Format : PGS
    Muxing mode : zlib
    Codec ID : S_HDMV/PGS
    Codec ID/Info : Picture based subtitle format used on BDs/HD-DVDs
    Duration : 1 h 24 min
    Bit rate : 22.8 kb/s
    Count of elements : 2158
    Stream size : 13.8 MiB (0%)
    Title : Thai PGS
    Language : Thai
    Default : Yes
    Forced : No

    Text #2
    ID : 5
    Format : PGS
    Muxing mode : zlib
    Codec ID : S_HDMV/PGS
    Codec ID/Info : Picture based subtitle format used on BDs/HD-DVDs
    Duration : 1 h 25 min
    Bit rate : 36.8 kb/s
    Count of elements : 3302
    Stream size : 22.5 MiB (1%)
    Title : Eng PGS
    Language : English
    Default : No
    Forced : No

    Text #3
    ID : 6
    Format : PGS
    Muxing mode : zlib
    Codec ID : S_HDMV/PGS
    Codec ID/Info : Picture based subtitle format used on BDs/HD-DVDs
    Duration : 1 h 25 min
    Bit rate : 40.8 kb/s
    Count of elements : 3844
    Stream size : 25.1 MiB (1%)
    Title : Eng CC PGS
    Language : English
    Default : No
    Forced : No





    Download: cornfile
    http://cornfile.com/9zgn4kdo7wzv
    Download: mekafile
    http://www.mekafile.com/dl.php?f=7cc1a9bZj5Lw

  2. The Following 6 Users Say Thank You to Duckload.us For This Useful Post:

    amorn wichian (09-21-2019), apichartdear (09-22-2019), gaszolineskywalker (09-23-2019), NaiWan (09-29-2019), RangerZ (09-22-2019), thesuperpop (09-21-2019)

  3. #2
    Senior Member
    Join Date
    Jun 2014
    Posts
    992
    Thanks
    0
    Thanked 0 Times in 0 Posts
    ขอบคุณครับ

  4. #3
    Senior Member
    Join Date
    Jul 2012
    Posts
    6,218
    Thanks
    0
    Thanked 0 Times in 0 Posts
    ขอบคุณมากจ้า

  5. #4
    Senior Member
    Join Date
    Oct 2012
    Posts
    760
    Thanks
    1,697
    Thanked 0 Times in 0 Posts
    ขอบคุณครับ

+ Reply to Thread

Thread Information

Users Browsing this Thread

There are currently 1 users browsing this thread. (0 members and 1 guests)

     

Posting Permissions

  • You may not post new threads
  • You may not post replies
  • You may not post attachments
  • You may not edit your posts