+ Reply to Thread
Results 1 to 3 of 3
  1. #1
    Administrators Duckload.us's Avatar
    Join Date
    Dec 2010
    Posts
    107,002
    Thanks
    9
    Thanked 111,490 Times in 51,829 Posts

    Question [ฝรั่ง][ใหม่][พากย์ไทยมาสเตอร์]The Old Man & the Gun (2018) สิงห์เฒ่าปล้นพันธุ์เก๋า-[Super HQ]-[☼1080p.X264][ Sound:Eng AC3 5.1/Thai AC3 5.1:Master-Fox Chanel][SUB:Eng SRT]



    ฉบับเต็มไม่มีตัด มาสเตอรฺ์จากเว็ปนอกโมดิฟายเสียงไทยจากช่องFoxไทย จะมีช่วงหนึ่งที่เสียงไทยจะกลายเป็นอังกฤษ นั่นคือช่วงที่ทางช่องFoxตัดออกไป ฉบับเต็มที่โมดิฟายใหม่นี้จะยาวกว่าของFoxประมาณ9นาท ีกว่าๆ ครับ (่ประมาณช่วงที่ 00:47:28 ถึง 00:52:52)

    เป็นภาพยนตร์แนวตลก-ดราม่า กำกับโดย เดวิด โลเวอรี (A Ghost Story, Pete’s Dragon) ซึ่งสร้างจากเรื่องจริงของ ฟอร์เรสต์ ทัคเกอร์ อาชญากรชาวอเมริกันที่แหกคุกมาถึง 18 ครั้ง รวมทั้งครั้งที่ยิ่งใหญ่ที่เขาพยายามแหกคุก San Quentin ในวัย 70 ปี โดยภาพยนตร์จะเล่าถึงเรื่องราวในช่วงปีเฟื่องฟูของเข า และการที่เขากลายมาเป็นอาชญากรที่สื่อจับตามองมากที่ สุด เคซีย์ แอฟเฟล็ก จะรับบทเป็นนักสืบที่ดูแลคดีของ ฟอร์เรสต์ ทัคเกอร์ และ ซิสซี สเปเซก ในบทของหญิงสาวที่หลงรัก ฟอร์เรสต์ ทัคเกอร์ แม้เขาจะเป็นอาชญากร
    โรเบิร์ต เรดฟอร์ด กล่าวว่าภาพยนตร์ The Old Man & The Gun จะเป็นภาพยนตร์อำลาวงการ โดยเขาได้ร่วมแสดงกับ เคซีย์ แอฟเฟล็ก, ซิสซี สเปเซก, แดนนี โกลเวอร์ และ ทอม เวตส์ นอกจากจะรับบทแสดงนำแล้ว โรเบิร์ต เรดฟอร์ด ยังร่วมเป็นโปรดิวเซอร์เองด้วย

    Format : Matroska
    Format version : Version 4
    File size : 4.08 GiB
    Duration : 1 h 33 min
    Overall bit rate : 6 279 kb/s
    Movie name : The.Old.Man.&.The.Gun.2018.1080p.BluRay.x264-[Super HQ][email protected] Cup
    Cover : Yes
    Attachments : cover.jpg

    Video
    ID : 1
    Format : AVC
    Format/Info : Advanced Video Codec
    Format profile : [email protected]
    Format settings : CABAC / 1 Ref Frames
    Format settings, CABAC : Yes
    Format settings, Reference : 1 frame
    Format settings, GOP : M=1, N=25
    Codec ID : V_MPEG4/ISO/AVC
    Duration : 1 h 33 min
    Bit rate mode : Constant
    Bit rate : 5 000 kb/s
    Width : 1 920 pixels
    Height : 800 pixels
    Display aspect ratio : 2.40:1
    Frame rate mode : Constant
    Frame rate : 29.970 (30000/1001) FPS
    Color space : YUV
    Chroma subsampling : 4:2:0
    Bit depth : 8 bits
    Scan type : Progressive
    Bits/(Pixel*Frame) : 0.109
    Stream size : 3.25 GiB (80%)
    Title : The.Old.Man.&.The.Gun.2018.1080p.BluRay.x264-[Super HQ][email protected] Cup
    Language : English
    Default : Yes
    Forced : No

    Audio #1
    ID : 2
    Format : AC-3
    Format/Info : Audio Coding 3
    Commercial name : Dolby Digital
    Codec ID : A_AC3
    Duration : 1 h 33 min
    Bit rate mode : Constant
    Bit rate : 640 kb/s
    Channel(s) : 6 channels
    Channel layout : L R C LFE Ls Rs
    Sampling rate : 44.1 kHz
    Frame rate : 28.711 FPS (1536 SPF)
    Bit depth : 16 bits
    Compression mode : Lossy
    Stream size : 426 MiB (10%)
    Title : 5.1 AC3 Thai 640k 426m
    Language : Thai
    Service kind : Complete Main
    Default : Yes
    Forced : No

    Audio #2
    ID : 3
    Format : AC-3
    Format/Info : Audio Coding 3
    Commercial name : Dolby Digital
    Codec ID : A_AC3
    Duration : 1 h 33 min
    Bit rate mode : Constant
    Bit rate : 640 kb/s
    Channel(s) : 6 channels
    Channel layout : L R C LFE Ls Rs
    Sampling rate : 44.1 kHz
    Frame rate : 28.711 FPS (1536 SPF)
    Bit depth : 16 bits
    Compression mode : Lossy
    Stream size : 426 MiB (10%)
    Title : 5.1 AC3 Eng 640k 426m
    Language : English
    Service kind : Complete Main
    Default : No
    Forced : No

    Text #1
    ID : 4
    Format : UTF-8
    Codec ID : S_TEXT/UTF8
    Codec ID/Info : UTF-8 Plain Text
    Duration : 1 h 29 min
    Bit rate : 59 b/s
    Count of elements : 1282
    Stream size : 39.4 KiB (0%)
    Title : SRT
    Language : English
    Default : Yes
    Forced : No

    Text #2
    ID : 5
    Format : UTF-8
    Codec ID : S_TEXT/UTF8
    Codec ID/Info : UTF-8 Plain Text
    Duration : 1 h 30 min
    Bit rate : 67 b/s
    Count of elements : 1448
    Stream size : 44.9 KiB (0%)
    Title : SRT-HI-Hearing Impaired=ผู้บกพร่องทางเสียง
    Language : English
    Default : No
    Forced : No





    Download: cornfile
    http://cornfile.com/6wnbouwjm8ne
    Download: mekafile
    http://www.mekafile.com/dl.php?f=uC6325bZjkQH

  2. The Following 2 Users Say Thank You to Duckload.us For This Useful Post:

    noi54 (09-22-2019), spiderpud2 (10-05-2019)

  3. #2
    Senior Member
    Join Date
    Jun 2014
    Posts
    992
    Thanks
    0
    Thanked 0 Times in 0 Posts
    ขอบคุณครับ

  4. #3
    Senior Member
    Join Date
    Jul 2012
    Posts
    6,218
    Thanks
    0
    Thanked 0 Times in 0 Posts
    ขอบคุณมากจ้า

+ Reply to Thread

Thread Information

Users Browsing this Thread

There are currently 1 users browsing this thread. (0 members and 1 guests)

     

Posting Permissions

  • You may not post new threads
  • You may not post replies
  • You may not post attachments
  • You may not edit your posts