+ Reply to Thread
Results 1 to 3 of 3
  1. #1
    Administrators Duckload.us's Avatar
    Join Date
    Dec 2010
    Posts
    107,002
    Thanks
    9
    Thanked 111,490 Times in 51,829 Posts

    Question []-[* ͹!! Netflix *] Between Two Ferns: The Movie (2019) : շչ : ٿ [§ѧ 5.1] [ + ѧ] [Ѻ Master From Netflix + Ѻ PGS Ѵ]-WEB-DL.H.264.1080p. [Modified]-[Soundtrack ]



    ֧èͧ¹ʹ ᫤ ¹ҤդӶ֡ҡ¨֧ ͡Թҧǻɳ줹ѧ¡÷ ع

    Format : Matroska
    Format version : Version 4
    File size : 3.29 GiB
    Duration : 1 h 22 min
    Overall bit rate mode : Variable
    Overall bit rate : 5 690 kb/s
    Movie name : Between.Two.Ferns.The.Movie.2019.1080p.NF.WEBRip.D DP5.1.x264_by SkiesIT
    Encoded date : UTC 2019-09-20 09:05:43
    Writing application : mkvmerge v36.0.0 ('Is That Jazz?') 64-bit
    Writing library : libebml v1.3.9 + libmatroska v1.5.2

    Video
    ID : 1
    Format : AVC
    Format/Info : Advanced Video Codec
    Format profile : [email protected]
    Format settings : CABAC / 3 Ref Frames
    Format settings, CABAC : Yes
    Format settings, Reference frames : 3 frames
    Codec ID : V_MPEG4/ISO/AVC
    Duration : 1 h 22 min
    Bit rate mode : Variable
    Bit rate : 4 870 kb/s
    Maximum bit rate : 7 305 kb/s
    Width : 1 920 pixels
    Height : 1 080 pixels
    Display aspect ratio : 16:9
    Frame rate mode : Constant
    Frame rate : 24.000 FPS
    Color space : YUV
    Chroma subsampling : 4:2:0
    Bit depth : 8 bits
    Scan type : Progressive
    Bits/(Pixel*Frame) : 0.098
    Stream size : 2.79 GiB (85%)
    Title : Between.Two.Ferns.The.Movie.2019.1080p.NF.WEBRip.D DP5.1.x264_by SkiesIT
    Writing library : x264 core 148 r2715 7e75228
    Encoding settings : cabac=1 / ref=3 / deblock=1:0:0 / analyse=0x1:0x111 / me=umh / subme=10 / psy=1 / psy_rd=1.00:0.00 / mixed_ref=1 / me_range=24 / chroma_me=1 / trellis=2 / 8x8dct=0 / cqm=0 / deadzone=21,11 / fast_pskip=1 / chroma_qp_offset=-2 / threads=8 / lookahead_threads=1 / sliced_threads=0 / nr=0 / decimate=1 / interlaced=0 / bluray_compat=0 / stitchable=1 / constrained_intra=0 / bframes=2 / b_pyramid=0 / b_adapt=2 / b_bias=0 / direct=3 / weightb=1 / open_gop=0 / weightp=2 / keyint=250 / keyint_min=24 / scenecut=0 / intra_refresh=0 / rc_lookahead=48 / rc=2pass / mbtree=1 / bitrate=4870 / ratetol=1.0 / qcomp=0.50 / qpmin=6 / qpmax=51 / qpstep=4 / cplxblur=20.0 / qblur=0.5 / vbv_maxrate=7305 / vbv_bufsize=9740 / nal_hrd=vbr / filler=0 / ip_ratio=1.40 / aq=1:1.00
    Language : English
    Default : Yes
    Forced : No

    Audio
    ID : 2
    Format : E-AC-3
    Format/Info : Enhanced AC-3
    Commercial name : Dolby Digital Plus
    Codec ID : A_EAC3
    Duration : 1 h 22 min
    Bit rate mode : Constant
    Bit rate : 640 kb/s
    Channel(s) : 6 channels
    Channel layout : L R C LFE Ls Rs
    Sampling rate : 48.0 kHz
    Frame rate : 31.250 FPS (1536 SPF)
    Compression mode : Lossy
    Stream size : 379 MiB (11%)
    Title : English
    Language : English
    Service kind : Complete Main
    Default : Yes
    Forced : No

    Text #1
    ID : 3
    Format : UTF-8
    Codec ID : S_TEXT/UTF8
    Codec ID/Info : UTF-8 Plain Text
    Duration : 1 h 21 min
    Bit rate : 244 b/s
    Count of elements : 1788
    Stream size : 146 KiB (0%)
    Title : Thai SRT From Netflix
    Language : Thai
    Default : Yes
    Forced : No

    Text #2
    ID : 4
    Format : VobSub
    Muxing mode : zlib
    Codec ID : S_VOBSUB
    Codec ID/Info : Picture based subtitle format used on DVDs
    Duration : 1 h 21 min
    Bit rate : 23.4 kb/s
    Count of elements : 1788
    Stream size : 13.7 MiB (0%)
    Title : Thai 1080p
    Language : Thai
    Default : No
    Forced : No

    Text #3
    ID : 5
    Format : VobSub
    Muxing mode : zlib
    Codec ID : S_VOBSUB
    Codec ID/Info : Picture based subtitle format used on DVDs
    Duration : 1 h 21 min
    Bit rate : 23.4 kb/s
    Count of elements : 1788
    Stream size : 13.7 MiB (0%)
    Title : Thai 1080p Yellow
    Language : Thai
    Default : No
    Forced : No

    Text #4
    ID : 6
    Format : VobSub
    Muxing mode : zlib
    Codec ID : S_VOBSUB
    Codec ID/Info : Picture based subtitle format used on DVDs
    Duration : 1 h 21 min
    Bit rate : 27.9 kb/s
    Count of elements : 1788
    Stream size : 16.3 MiB (0%)
    Title : Thai 1080p [BIG]
    Language : Thai
    Default : No
    Forced : No

    Text #5
    ID : 7
    Format : PGS
    Muxing mode : zlib
    Codec ID : S_HDMV/PGS
    Codec ID/Info : Picture based subtitle format used on BDs/HD-DVDs
    Duration : 1 h 21 min
    Bit rate : 99.4 kb/s
    Count of elements : 3576
    Stream size : 58.1 MiB (2%)
    Title : Thai PGS
    Language : Thai
    Default : No
    Forced : No

    Text #6
    ID : 8
    Format : PGS
    Muxing mode : zlib
    Codec ID : S_HDMV/PGS
    Codec ID/Info : Picture based subtitle format used on BDs/HD-DVDs
    Duration : 1 h 21 min
    Bit rate : 99.4 kb/s
    Count of elements : 3576
    Stream size : 58.1 MiB (2%)
    Title : Thai PGS Yellow
    Language : Thai
    Default : No
    Forced : No

    Text #7
    ID : 9
    Format : PGS
    Muxing mode : zlib
    Codec ID : S_HDMV/PGS
    Codec ID/Info : Picture based subtitle format used on BDs/HD-DVDs
    Duration : 1 h 21 min
    Bit rate : 123 kb/s
    Count of elements : 3576
    Stream size : 72.1 MiB (2%)
    Title : Thai PGS [BIG]
    Language : Thai
    Default : No
    Forced : No

    Text #8
    ID : 10
    Format : PGS
    Muxing mode : zlib
    Codec ID : S_HDMV/PGS
    Codec ID/Info : Picture based subtitle format used on BDs/HD-DVDs
    Duration : 1 h 21 min
    Bit rate : 97.3 kb/s
    Count of elements : 4002
    Stream size : 56.9 MiB (2%)
    Title : English PGS
    Language : English
    Default : No
    Forced : No

















    Download: cornfile
    http://cornfile.com/fiydt428kzro
    Download: mekafile
    http://www.mekafile.com/dl.php?f=La77a8bZjkKW

  2. The Following 2 Users Say Thank You to Duckload.us For This Useful Post:

    gaszolineskywalker (09-23-2019), jangska (09-24-2019)

  3. #2
    Senior Member
    Join Date
    Jun 2014
    Posts
    992
    Thanks
    0
    Thanked 0 Times in 0 Posts
    ͺسѺ

  4. #3
    Senior Member
    Join Date
    Oct 2012
    Posts
    760
    Thanks
    1,697
    Thanked 0 Times in 0 Posts
    ͺسѺ

Thread Information

Users Browsing this Thread

There are currently 1 users browsing this thread. (0 members and 1 guests)

     

Posting Permissions

  • You may not post new threads
  • You may not post replies
  • You may not post attachments
  • You may not edit your posts