+ Reply to Thread
Results 1 to 5 of 5
  1. #1
    Administrators Duckload.us's Avatar
    Join Date
    Dec 2010
    Posts
    108,040
    Thanks
    7
    Thanked 112,897 Times in 52,186 Posts

    Question [อินเดีย][MASTER] -Bahubali (บาฮูบาลี) ภาค 1-ภาค 2 -Encode.H.264.1080p. [Modified]-[พากย์ไทย][พากย์ไทย 2.0 ] -(*ไม่มีซับ เฉพาะเสียงไทยเท่านั้น*) *พากย์ไทย ทั้ง 2 ภาค*




    จุดต้นกำเนิดราชาแห่งตำนาน สู่อภิมหาศึกทวงบัลลังก์สะเทือนปฐพี” ภาพยนตร์ที่ใช้ทุนสร้างสูงสุดในประวัติศาสตร์ภาพยนตร ์อินเดีย ทำรายได้ถล่มทลายทั่วโลกกว่า 3000 ล้านบาท เป็นภาพยนตรแนวมหากาพย์สงครามที่เน้นถ่ายทำด้วยเทคนิ คพิเศษทั้งเรื่อง
    นำแสดงโดย ประภาส ราจู อุปปัลปติ ( Prabhas Raju Uppalapati) และ อนุชกา เชตติ (Anushka Shetty) หนังเปิดเรื่องด้วยชะตากรรมระหกระเหินของทารกเพศชายผ ู้หนึ่ง ซึ่งถูกไล่ล่าโดยกองกำลังของอาณาจักรอะไรสักอย่าง สตรีวัยกลางคนผู้พาทารกหลบหนีตัดสินใจพลีชีพกลางสายน ้ำ ส่วนทารกน้อยผู้รอดชีวิตก็ได้รับการช่วยเหลือจากผู้ค นในชุมชนเชิงเขา เด็กน้อยค่อยๆ เติบใหญ่เป็นชายหนุ่ม เขาประกอบวีรกรรมบางอย่างที่หาญกล้าผิดแผกไปจากบรรดา บุรุษร่วมชุมชน ยิ่งกว่านั้น ตั้งแต่เล็กจนโต เขายังมีความปรารถนาที่จะปีนขึ้นไปบนยอดเขาสูง ซึ่งสำหรับผู้คนส่วนใหญ่ในชุมชนเชิงเขา นั่นคือความเพ้อฝัน อันไม่มีทางเป็นไปได้ผิดกับความเชื่อในจิตใจส่วนลึกข องชายหนุ่ม ที่คล้ายจะตระหนักว่ามีอะไรบางอย่างรอคอยเขาอยู่เบื้ องบน ในที่สุด ชายหนุ่มก็ปีนขึ้นสู่ยอดเขาได้สำเร็จ (โดยเหตุการณ์ถูกเล่าออกมาในเชิง “สัจนิยมมหัศจรรย์” นิดๆ) จากนั้น เขาจึงเข้าไปพัวพันกับ “กองโจร” ที่ซ่องสุมกำลังเพื่อแย่งชิงอำนาจในอาณาจักรใหญ่ ก่อนจะพบว่าตนเองเป็นทายาทของ “ราชาบาฮูบาลี” อดีตกษัตริย์ผู้มีปรีชาสามารถ ซึ่งถูกลอบปลงพระชนม์และโค่นล้มลงจากราชบัลลังก์ หนังภาคแรกปิดฉากตรงการเฉลยว่า ขุนศึกผู้เก่งกล้าและจงรักภักดีต่อ “ราชาบาฮูบาลี” นั่นแหละ ที่เป็นผู้ลงมือสังหารพระองค์

    Format : Matroska
    Format version : Version 4
    File size : 4.18 GiB
    Duration : 2 h 38 min
    Overall bit rate : 3 784 kb/s
    Writing application : Lavf57.83.100
    Writing library : Lavf57.83.100
    ErrorDetectionType : Per level 1

    Video
    ID : 1
    Format : AVC
    Format/Info : Advanced Video Codec
    Format profile : [email protected]
    Format settings : CABAC / 3 Ref Frames
    Format settings, CABAC : Yes
    Format settings, Reference frames : 3 frames
    Codec ID : V_MPEG4/ISO/AVC
    Duration : 2 h 38 min
    Bit rate : 3 517 kb/s
    Width : 1 920 pixels
    Height : 1 080 pixels
    Display aspect ratio : 16:9
    Frame rate mode : Constant
    Frame rate : 60.000 FPS
    Color space : YUV
    Chroma subsampling : 4:2:0
    Bit depth : 8 bits
    Scan type : Progressive
    Bits/(Pixel*Frame) : 0.028
    Stream size : 3.89 GiB (93%)
    Title : ISO Media file produced by Google Inc. Created on: 04/02/2019.
    Writing library : x264 core 155 r2901 7d0ff22
    Default : Yes
    Forced : No
    Color range : Limited
    Color primaries : BT.709
    Transfer characteristics : BT.709
    Matrix coefficients : BT.709

    Audio
    ID : 2
    Format : AC-3
    Format/Info : Audio Coding 3
    Commercial name : Dolby Digital
    Codec ID : A_AC3
    Duration : 2 h 38 min
    Bit rate mode : Constant
    Bit rate : 192 kb/s
    Channel(s) : 2 channels
    Channel layout : L R
    Sampling rate : 44.1 kHz
    Frame rate : 28.711 FPS (1536 SPF)
    Bit depth : 16 bits
    Compression mode : Lossy
    Stream size : 217 MiB (5%)
    Title : ISO Media file produced by Google Inc. Created on: 04/02/2019.
    Writing library : Lavc57.107.100 ac3
    Service kind : Complete Main
    Default : Yes
    Forced : No





    Baahubali 2: The Conclusion เป็นเรื่องราวที่เกิดก่อนภาคแรก พระเจ้าอยู่หัวบาฮูบาลี เป็นกษัตริย์ที่ก้าวขึ้นสู่อำนาจโดยการแต่งตั้งของ มหาราชินีศิวากามี โดยตั้งขึ้นมาข้ามหัวภัลลาเทวะผู้พี่ ส่งผลให้ผู้พี่มีความอิจฉาริษยาน้องชายมาก ต่อมาบาฮูบาลีได้ปลอมตัวออกไปเที่ยวนอกวังแล้วไปตกหล ุมรักเดวาเซน่า เจ้าหญิงเมืองประเทศราชเล็กๆ แต่เป็นคนที่มีจิตใจเข้มแข็งเย่อหยิ่งในศักดิ์ศรี พี่ชายของบาฮูบาลีทราบเรื่องเลยไปทูลขอให้ราชินีศิวา กามีแต่งจดหมายไปสู่ขอเดวาเซน่ามาเป็นภรรยาของตัวเอง แต่ด้วยเนื้อความที่เขียนไปว่าขอให้ลูกชาย บาฮูบาลีกับเดวาเซน่าเลยเข้าใจผิดคิดว่าพระราชินีศิว ากามีต้องการให้ทั้งสองแต่งงานกัน แต่พอไปถึงเข้าจริงๆเลยพบว่าเป็นเรื่องเข้าใจผิด บาฮูบาลีเลยจำต้องยกบัลลังก์ให้พี่ชายตัวเอง เพื่อให้ตัวเองได้แต่งงานกับเดวาเซน่า แล้วบาฮูบาลีก็ลดตำแหน่งตัวเองเป็นแม่ทัพ แต่ประชาชนทั้งแผ่นดินกลับจงรักภักดีต่อบาฮูบาลีมากก ว่า โดยในวันพิธียรมราชิภิเษก ไพร่ฟ้าหน้าใส และกองทัพช้างศึกแห่งแผ่นดินอินเดียต่างกู่ร้องกระทื บเท้าเอ่ยนามบาฮูบาลี จนแผ่นดินไหวสั่นสะเทือนไปจนฉัตรที่ประดับเหนือบัลลั งก์ของภัลลาเทวะหักลงมา จากเหตุการณ์ที่เกิดขึ้นนั้นเอง กษัตริย์ผู้พี่ก็รู้สึกอิจฉาบาฮูบาลีเป็นอย่างมาก จนต้องหาทางกำจัดบาฮูบาลีออกไปให้พ้นแผ่นดิน เรื่องราวบานปลายจนกลายเป็นศึกชิงบัลลังก์ถึงสมัยบาฮ ูบาลีคนลูก ที่กลายมาเป็นบาฮูบาลีภาคแรก ดังนั้นใครที่ลังเลว่าจะดูภาคสองดีไหมพูดเลย ไม่ต้องคิดเยอะ ไปดูได้เลย รับรองว่าดูรู้เรื่อง ดูจบแล้วกลับมาดูภาคแรก เพราะภาคแรกเดินเรื่องต่อจากภาคสอง

    Format version : Version 4
    File size : 7.03 GiB
    Duration : 2 h 26 min
    Overall bit rate mode : Variable
    Overall bit rate : 6 845 kb/s
    Writing application : Lavf57.83.100
    Writing library : Lavf57.83.100
    ErrorDetectionType : Per level 1

    Video
    ID : 1
    Format : AVC
    Format/Info : Advanced Video Codec
    Format profile : [email protected]
    Format settings : CABAC / 2 Ref Frames
    Format settings, CABAC : Yes
    Format settings, Reference frames : 2 frames
    Format settings, GOP : M=1, N=30
    Codec ID : V_MPEG4/ISO/AVC
    Duration : 2 h 26 min
    Bit rate mode : Variable
    Bit rate : 6 648 kb/s
    Maximum bit rate : 768 kb/s
    Width : 1 920 pixels
    Height : 1 080 pixels
    Display aspect ratio : 16:9
    Frame rate mode : Variable
    Frame rate : 25.094 FPS
    Color space : YUV
    Chroma subsampling : 4:2:0
    Bit depth : 8 bits
    Scan type : Progressive
    Bits/(Pixel*Frame) : 0.128
    Stream size : 6.85 GiB (97%)
    Default : Yes
    Forced : No
    Color range : Limited
    Color primaries : BT.709
    Transfer characteristics : BT.709
    Matrix coefficients : BT.709

    Audio
    ID : 2
    Format : AC-3
    Format/Info : Audio Coding 3
    Commercial name : Dolby Digital
    Codec ID : A_AC3
    Duration : 2 h 26 min
    Bit rate mode : Constant
    Bit rate : 192 kb/s
    Channel(s) : 2 channels
    Channel layout : L R
    Sampling rate : 48.0 kHz
    Frame rate : 31.250 FPS (1536 SPF)
    Bit depth : 16 bits
    Compression mode : Lossy
    Delay relative to video : 875 ms
    Stream size : 267 MiB (4%)
    Writing library : Lavc57.107.100 ac3
    Language : Thai
    Service kind : Complete Main
    Default : Yes
    Forced : No




    Download: cornfile
    Baahubali 1 บาฮูบาลี The Beginning เปิดตำนานบาฮูบาลี (2015).mkv - 4.2 GB
    Baahubali 2 บาฮูบาลี 2 The Conclusion มหาศึกบาฮูบาลี.mkv - 7.0 GB

    Download: mekafile
    1 http://www.mekafile.com/dl.php?f=cI46ddbZLrMK
    2 http://www.mekafile.com/dl.php?f=vg8246bZLrVk

  2. The Following 7 Users Say Thank You to Duckload.us For This Useful Post:

    apichartdear (10-03-2019), chakhrit (10-15-2019), Jodz14 (10-04-2019), noi54 (10-03-2019), smakha (10-04-2019), spiderpud2 (10-04-2019), Wesker_TOT (10-03-2019)

  3. #2
    Senior Member
    Join Date
    Jun 2014
    Posts
    1,204
    Thanks
    0
    Thanked 0 Times in 0 Posts
    ขอบคุณครับ

  4. #3
    Senior Member
    Join Date
    Dec 2013
    Posts
    1,820
    Thanks
    3,758
    Thanked 0 Times in 0 Posts
    ขอบคุณนะครับ...

  5. #4
    Senior Member
    Join Date
    Oct 2013
    Posts
    1,570
    Thanks
    0
    Thanked 0 Times in 0 Posts
    ขอบคุณครับ

  6. #5
    Senior Member
    Join Date
    Jul 2012
    Posts
    6,216
    Thanks
    0
    Thanked 0 Times in 0 Posts
    ขอบคุณมากจ้า

+ Reply to Thread

Thread Information

Users Browsing this Thread

There are currently 1 users browsing this thread. (0 members and 1 guests)

     

Posting Permissions

  • You may not post new threads
  • You may not post replies
  • You may not post attachments
  • You may not edit your posts