+ Reply to Thread
Results 1 to 5 of 5
  1. #1
    Administrators Duckload.us's Avatar
    Join Date
    Dec 2010
    Posts
    106,925
    Thanks
    9
    Thanked 111,414 Times in 51,816 Posts

    Question [ญี่ปุ่น]-[MASTER] Detective Conan The Movie 23 : THE FIST OF BLUE SAPPHIRE (2019) ยอดนักสืบจิ๋วโคนันเดอะมูฟวี่ 23 ศึกชิงอัญมณีสีคราม-WEB-DL.H.264.720p-[พากย์ไทย]



    กำปั้นสีน้ำเงิน บลูแซฟไฟร์ขนาดใหญ่ที่สุดในโลกซึ่งจมอยู่ในทะเลแถบสิ งคโปร์พร้อมกับเรือโจรสลัดในช่วงปลายศตวรรษที่ 19 ได้ถูกมหาเศรษฐีท้องถิ่นเก็บกู้ขึ้นมา และนำมาอวดโฉมต่อหน้าสาธารณชน แต่กลับเกิดคดีฆาตกรรมขึ้นที่มารีน่าเบย์แซนด์ส โดยในที่เกิดเหตุนั้นมีสาส์นเตือนของจอมโจรคิดที่เปื ้อนเลือดตกอยู่... ขณะเดียวกัน รันกับโซโนโกะก็เดินทางมาชมการแข่งขันคาราเต้ที่จัดข ึ้นที่สิงคโปร์พอดี ส่วนโคนันเดินทางออกนอกประเทศไม่ได้เนื่องจากไม่มีพา สปอร์ต จึงต้องอยู่เฝ้าบ้าน แต่จอมโจรคิดต้องการใช้ประโยชน์จากโคนัน จึงใช้มายากลหลอกล่อพาตัวโคนันมายังสิงคโปร์ แถมยังจับเขาแปลงโฉมใหม่พร้อมกับยึดแว่นตา นาฬิกาข้อมือ และเสื้อผ้าไปหมดอีกด้วย หากไม่ยอมทำตามที่คิดบอก โคนันก็จะไม่สามารถกลับญี่ปุ่นได้ เมื่อถูกรันถามชื่อโดยที่ดูไม่ออกว่าคนที่เธอถามเป็น ใคร โคนันจึงโมเมตอบไปว่าชื่ออาเธอร์ ฮิราอิ (!?)

    ต่อมาคิดก็ได้รับข้อมูลว่าบลูแซฟไฟร์หลับใหลอยู่ในตู ้เซฟใต้ดินของคฤหาสน์แห่งหนึ่ง ทีแรกนึกว่าลักลอบเข้ามาได้ง่ายๆ แต่แท้จริงแล้วที่นั่นมีกับดักสุดแสนอันตรายรอคิดอยู ่ นั่นคือการเผชิญหน้ากับเคียวโกขุ มาโคโตะ นักคาราเต้สุดแกร่งผู้ไร้พ่าย 400 นัด ชะตากรรมของคิดจะเป็นเช่นไร...!? และน้ำสีแดงฉานที่ถูกปล่อยออกมาจากปากเมอร์ไลอ้อน สัญลักษณ์ของสิงคโปร์ ก็ราวกับเป็นลางบอกเหตุร้ายบางอย่าง!


    Format : MPEG-4
    Format profile : Base Media
    Codec ID : isom (isom/iso2/avc1/mp41)
    File size : 2.90 GiB
    Duration : 1 h 49 min
    Overall bit rate : 3 796 kb/s
    Writing application : Bandicut 3.1.5.511 / Cutter / HS

    Video
    ID : 1
    Format : AVC / AVC
    Format/Info : Advanced Video Codec
    Format profile : [email protected] / [email protected]
    Format settings : 1 Ref Frames / 1 Ref Frames
    Format settings, CABAC : No / No
    Format settings, Reference frames : 1 frame / 1 frame
    Codec ID : avc1
    Codec ID/Info : Advanced Video Coding
    Duration : 1 h 49 min
    Bit rate : 3 596 kb/s
    Width : 1 360 pixels
    Original width : 1 360 pixels / 1 360 pixels
    Height : 768 pixels
    Original height : 768 pixels / 768 pixels
    Display aspect ratio : 16:9
    Frame rate mode : Variable
    Frame rate : 30.000 FPS
    Minimum frame rate : 7.500 FPS
    Maximum frame rate : 30.000 FPS
    Color space : YUV
    Chroma subsampling : 4:2:0 / 4:2:0
    Bit depth : 8 bits / 8 bits
    Scan type : Progressive / Progressive
    Bits/(Pixel*Frame) : 0.115
    Stream size : 2.75 GiB (95%)
    Codec configuration box : avcC

    Audio
    ID : 2
    Format : AAC LC
    Format/Info : Advanced Audio Codec Low Complexity
    Codec ID : mp4a-40-2
    Duration : 1 h 49 min
    Bit rate mode : Constant
    Bit rate : 192 kb/s
    Channel(s) : 2 channels
    Channel layout : L R
    Sampling rate : 44.1 kHz
    Frame rate : 43.066 FPS (1024 SPF)
    Compression mode : Lossy
    Stream size : 151 MiB (5%)
    Default : Yes
    Alternate group : 1






    Download: cornfile
    http://cornfile.com/7ogu67760t3a
    Download: mekafile
    http://www.mekafile.com/dl.php?f=Ws243fbZQbsL

  2. The Following 4 Users Say Thank You to Duckload.us For This Useful Post:

    apichartdear (10-04-2019), gaszolineskywalker (Yesterday), spiderpud2 (10-05-2019), Wesker_TOT (10-05-2019)

  3. #2
    Senior Member
    Join Date
    Dec 2013
    Posts
    1,798
    Thanks
    3,743
    Thanked 0 Times in 0 Posts
    ขอบคุณครับ...

  4. #3
    Senior Member
    Join Date
    Jul 2014
    Posts
    163
    Thanks
    5
    Thanked 0 Times in 0 Posts
    ขอบคุณมากครับ

  5. #4
    Senior Member
    Join Date
    Jul 2012
    Posts
    6,205
    Thanks
    0
    Thanked 0 Times in 0 Posts
    ขอบคุณมากจ้า

  6. #5
    Senior Member
    Join Date
    Oct 2012
    Posts
    760
    Thanks
    1,697
    Thanked 0 Times in 0 Posts
    ขอบคุณครับ

+ Reply to Thread

Thread Information

Users Browsing this Thread

There are currently 1 users browsing this thread. (0 members and 1 guests)

     

Posting Permissions

  • You may not post new threads
  • You may not post replies
  • You may not post attachments
  • You may not edit your posts