+ Reply to Thread
Results 1 to 5 of 5
  1. #1
    Administrators Duckload.us's Avatar
    Join Date
    Dec 2010
    Posts
    106,925
    Thanks
    9
    Thanked 111,414 Times in 51,816 Posts

    Question [ฝรั่ง]-[* ใหม่ Netflix *] In the Tall Grass (2019) : พงหลอนมรณะ [พากย์ไทย 5.1 + เสียงอังกฤษ 5.1] [บรรยายไทย + อังกฤษ] [เสียงไทย + ซับไทย Master From Netflix + ซับ PGS คมชัด]-WEB-DL.H.264.1080p. [Modified]-[พากย์ไทย บรรยายไทย]



    เรื่องย่อ
    คู่พี่น้อง เบ็คกี้ และ แคล ได้ยินเสียงเด็กร้องขอความช่วยเหลือมาจากในทุ่งหญ้า ทั้งคู่เลยวิ่งไปหาต้นตอเสียงเพื่อช่วยเหลือ กลับกลายเป็นว่านั่นคือกับดักของวิญญาณชั่วร้ายที่ล่ อลวงเหยื่อให้เข้ามาติดกับ ทั้งคู่ต้องเผชิญกับมนตร์มายาที่ทำให้ต้องพลัดหลงจาก กัน ทั้งคู่หากันไม่เจอและหาทางออกจากทุ่งหญ้าก็ไม่ได้ด้ วย จากนี้คือต้องหนีเอาตัวรอดไม่ให้วิญญาณร้ายตามตัวเจอ

    ความน่าสนใจ
    สร้างจากบทประพันธ์ของสตีเฟน คิง ที่เขียนร่วมกับ โจ ฮิลล์ ลูกชายของเขา แล้วยังได้ แพททริค วิลสัน มารับบทนำ กำกับโดยวิเซนโซ นาตาลี ผู้กำกับงานชุกที่เคยมีผลงานเด่นอย่าง Cube (1997) และทีวีซีรีส์อีกหลายเรื่อง Lost in Space , American Gods ,The Strain , Wayward Pines , Hannibal


    Code:
    Format                                   : Matroska
    Format version                           : Version 4
    File size                                : 4.62 GiB
    Duration                                 : 1 h 41 min
    Overall bit rate mode                    : Variable
    Overall bit rate                         : 6 489 kb/s
    Movie name                               : In.the.Tall.Grass.2019.1080p.NF.WEB-DL.DDP5.1.x264_by SkiesIT
    Encoded date                             : UTC 2019-10-04 11:47:13
    Writing application                      : mkvmerge v37.0.0 ('Leave It') 64-bit
    Writing library                          : libebml v1.3.9 + libmatroska v1.5.2
    
    Video
    ID                                       : 1
    Format                                   : AVC
    Format/Info                              : Advanced Video Codec
    Format profile                           : [email protected]
    Format settings                          : CABAC / 1 Ref Frames
    Format settings, CABAC                   : Yes
    Format settings, Reference frames        : 1 frame
    Codec ID                                 : V_MPEG4/ISO/AVC
    Duration                                 : 1 h 41 min
    Bit rate mode                            : Variable
    Bit rate                                 : 4 956 kb/s
    Maximum bit rate                         : 15.0 Mb/s
    Width                                    : 1 920 pixels
    Height                                   : 1 080 pixels
    Display aspect ratio                     : 16:9
    Frame rate mode                          : Constant
    Frame rate                               : 24.000 FPS
    Color space                              : YUV
    Chroma subsampling                       : 4:2:0
    Bit depth                                : 8 bits
    Scan type                                : Progressive
    Bits/(Pixel*Frame)                       : 0.100
    Stream size                              : 3.53 GiB (76%)
    Title                                    : In.the.Tall.Grass.2019.1080p.NF.WEB-DL.DDP5.1.x264_by SkiesIT
    Language                                 : English
    Default                                  : Yes
    Forced                                   : No
    
    Audio #1
    ID                                       : 2
    Format                                   : E-AC-3
    Format/Info                              : Enhanced AC-3
    Commercial name                          : Dolby Digital Plus
    Codec ID                                 : A_EAC3
    Duration                                 : 1 h 41 min
    Bit rate mode                            : Constant
    Bit rate                                 : 640 kb/s
    Channel(s)                               : 6 channels
    Channel layout                           : L R C LFE Ls Rs
    Sampling rate                            : 48.0 kHz
    Frame rate                               : 31.250 FPS (1536 SPF)
    Compression mode                         : Lossy
    Delay relative to video                  : -23 ms
    Stream size                              : 466 MiB (10%)
    Title                                    : Thai E-AC-3 5.1 / 640 kb/s
    Language                                 : Thai
    Service kind                             : Complete Main
    Default                                  : Yes
    Forced                                   : No
    
    Audio #2
    ID                                       : 3
    Format                                   : E-AC-3 JOC
    Format/Info                              : Enhanced AC-3 with Joint Object Coding
    Commercial name                          : Dolby Digital Plus with Dolby Atmos
    Codec ID                                 : A_EAC3
    Duration                                 : 1 h 41 min
    Bit rate mode                            : Constant
    Bit rate                                 : 768 kb/s
    Channel(s)                               : 6 channels
    Channel layout                           : L R C LFE Ls Rs
    Sampling rate                            : 48.0 kHz
    Frame rate                               : 31.250 FPS (1536 SPF)
    Compression mode                         : Lossy
    Delay relative to video                  : -23 ms
    Stream size                              : 560 MiB (12%)
    Title                                    : English E-AC-3 5.1 / 768 kb/s Dolby Atmos
    Language                                 : English
    Service kind                             : Complete Main
    Default                                  : No
    Forced                                   : No
    Complexity index                         : 16
    Number of dynamic objects                : 15
    Bed channel count                        : 1 channel
    Bed channel configuration                : LFE
    
    Text #1
    ID                                       : 4
    Format                                   : UTF-8
    Codec ID                                 : S_TEXT/UTF8
    Codec ID/Info                            : UTF-8 Plain Text
    Duration                                 : 1 h 39 min
    Bit rate                                 : 98 b/s
    Count of elements                        : 1161
    Stream size                              : 71.7 KiB (0%)
    Title                                    : Thai SRT From Netflix
    Language                                 : Thai
    Default                                  : Yes
    Forced                                   : No
    
    Text #2
    ID                                       : 5
    Format                                   : VobSub
    Muxing mode                              : zlib
    Codec ID                                 : S_VOBSUB
    Codec ID/Info                            : Picture based subtitle format used on DVDs
    Duration                                 : 1 h 39 min
    Bit rate                                 : 9 611 b/s
    Count of elements                        : 1161
    Stream size                              : 6.81 MiB (0%)
    Title                                    : Thai 1080p From Netflix
    Language                                 : Thai
    Default                                  : No
    Forced                                   : No
    
    Text #3
    ID                                       : 6
    Format                                   : VobSub
    Muxing mode                              : zlib
    Codec ID                                 : S_VOBSUB
    Codec ID/Info                            : Picture based subtitle format used on DVDs
    Duration                                 : 1 h 39 min
    Bit rate                                 : 7 354 b/s
    Count of elements                        : 1161
    Stream size                              : 5.21 MiB (0%)
    Title                                    : Thai 1080p From Netflix [Original]
    Language                                 : Thai
    Default                                  : No
    Forced                                   : No
    
    Text #4
    ID                                       : 7
    Format                                   : VobSub
    Muxing mode                              : zlib
    Codec ID                                 : S_VOBSUB
    Codec ID/Info                            : Picture based subtitle format used on DVDs
    Duration                                 : 1 h 39 min
    Bit rate                                 : 9 621 b/s
    Count of elements                        : 1161
    Stream size                              : 6.82 MiB (0%)
    Title                                    : Thai 1080p Yellow From Netflix
    Language                                 : Thai
    Default                                  : No
    Forced                                   : No
    
    Text #5
    ID                                       : 8
    Format                                   : VobSub
    Muxing mode                              : zlib
    Codec ID                                 : S_VOBSUB
    Codec ID/Info                            : Picture based subtitle format used on DVDs
    Duration                                 : 1 h 39 min
    Bit rate                                 : 7 351 b/s
    Count of elements                        : 1161
    Stream size                              : 5.21 MiB (0%)
    Title                                    : Thai 1080p Yellow From Netflix [Original]
    Language                                 : Thai
    Default                                  : No
    Forced                                   : No
    
    Text #6
    ID                                       : 9
    Format                                   : VobSub
    Muxing mode                              : zlib
    Codec ID                                 : S_VOBSUB
    Codec ID/Info                            : Picture based subtitle format used on DVDs
    Duration                                 : 1 h 39 min
    Bit rate                                 : 11.4 kb/s
    Count of elements                        : 1161
    Stream size                              : 8.10 MiB (0%)
    Title                                    : Thai 1080p From Netflix [BIG]
    Language                                 : Thai
    Default                                  : No
    Forced                                   : No
    
    Text #7
    ID                                       : 10
    Format                                   : PGS
    Muxing mode                              : zlib
    Codec ID                                 : S_HDMV/PGS
    Codec ID/Info                            : Picture based subtitle format used on BDs/HD-DVDs
    Duration                                 : 1 h 39 min
    Bit rate                                 : 40.4 kb/s
    Count of elements                        : 2322
    Stream size                              : 28.6 MiB (1%)
    Title                                    : Thai PGS From Netflix
    Language                                 : Thai
    Default                                  : No
    Forced                                   : No
    
    Text #8
    ID                                       : 11
    Format                                   : PGS
    Muxing mode                              : zlib
    Codec ID                                 : S_HDMV/PGS
    Codec ID/Info                            : Picture based subtitle format used on BDs/HD-DVDs
    Duration                                 : 1 h 39 min
    Bit rate                                 : 40.4 kb/s
    Count of elements                        : 2322
    Stream size                              : 28.6 MiB (1%)
    Title                                    : Thai PGS Yellow From Netflix
    Language                                 : Thai
    Default                                  : No
    Forced                                   : No
    
    Text #9
    ID                                       : 12
    Format                                   : PGS
    Muxing mode                              : zlib
    Codec ID                                 : S_HDMV/PGS
    Codec ID/Info                            : Picture based subtitle format used on BDs/HD-DVDs
    Duration                                 : 1 h 39 min
    Bit rate                                 : 50.0 kb/s
    Count of elements                        : 2322
    Stream size                              : 35.4 MiB (1%)
    Title                                    : Thai PGS From Netflix [BIG]
    Language                                 : Thai
    Default                                  : No
    Forced                                   : No
    
    Text #10
    ID                                       : 13
    Format                                   : PGS
    Muxing mode                              : zlib
    Codec ID                                 : S_HDMV/PGS
    Codec ID/Info                            : Picture based subtitle format used on BDs/HD-DVDs
    Duration                                 : 1 h 39 min
    Bit rate                                 : 36.6 kb/s
    Count of elements                        : 2324
    Stream size                              : 25.9 MiB (1%)
    Title                                    : Thai PGS From Netflix [Original]
    Language                                 : Thai
    Default                                  : No
    Forced                                   : No
    
    Text #11
    ID                                       : 14
    Format                                   : PGS
    Muxing mode                              : zlib
    Codec ID                                 : S_HDMV/PGS
    Codec ID/Info                            : Picture based subtitle format used on BDs/HD-DVDs
    Duration                                 : 1 h 38 min
    Bit rate                                 : 48.7 kb/s
    Count of elements                        : 3002
    Stream size                              : 34.2 MiB (1%)
    Title                                    : English PGS
    Language                                 : English
    Default                                  : No
     Forced                                   : No


















    Download: cornfile
    http://cornfile.com/82snx6bwvow3
    Download: mekafile
    http://www.mekafile.com/dl.php?f=8o409abZSP2K

  2. The Following 8 Users Say Thank You to Duckload.us For This Useful Post:

    agg001 (10-06-2019), apichartdear (10-05-2019), bigbang06 (10-05-2019), gaszolineskywalker (Yesterday), Jodz14 (Yesterday), noi54 (10-06-2019), smakha (10-08-2019), Tellmon (10-07-2019)

  3. #2
    Senior Member
    Join Date
    Jan 2011
    Posts
    668
    Thanks
    886
    Thanked 0 Times in 0 Posts
    ขอบคุณครับ

  4. #3
    Senior Member
    Join Date
    Jul 2012
    Posts
    6,205
    Thanks
    0
    Thanked 0 Times in 0 Posts
    ขอบคุณมากจ้า

  5. #4
    Senior Member
    Join Date
    Jun 2014
    Posts
    992
    Thanks
    0
    Thanked 0 Times in 0 Posts
    ขอบคุณครับ

  6. #5
    Senior Member
    Join Date
    Oct 2012
    Posts
    760
    Thanks
    1,697
    Thanked 0 Times in 0 Posts
    ขอบคุณครับ

+ Reply to Thread

Thread Information

Users Browsing this Thread

There are currently 1 users browsing this thread. (0 members and 1 guests)

     

Posting Permissions

  • You may not post new threads
  • You may not post replies
  • You may not post attachments
  • You may not edit your posts