+ Reply to Thread
Results 1 to 2 of 2
  1. #1
    Administrators Duckload.us's Avatar
    Join Date
    Dec 2010
    Posts
    106,925
    Thanks
    9
    Thanked 111,414 Times in 51,816 Posts

    Question [ฝรั่ง]-[**ใหม่ MINI HD 1080P**] • Fast & Furious Presents : Hobbs & Shaw (2019) : เร็ว แรงทะลุนรกฮ็อบส์ แอนด์ ชอว์ [1080p.WEBRip.x264.AAC2.0.ThaiRong] [พากย์ไทยโรง + เสียงอังกฤษ มาสเตอร์] [บรรยายไทย(แปล)+ อังกฤษ + ซับไทย PGS คมชัด ]





    นับตั้งแต่ที่ ฮ็อบส์ เจ้าหน้าที่ผู้รักษากฎหมายเจ้าของร่างล่ำบึ้ก (จอห์นสัน) ผู้จงรักภักดีต่อองค์กรหน่วยรักษาความปลอดภัยทางการท ูตแห่งอเมริกาและชอว์ (สเตแธม) ชายนอกกฎหมาย อดีตเจ้าหน้าที่ทหารชั้นสูงของอังกฤษ ได้เผชิญหน้ากันเป็นครั้งแรกใน Fast & Furious 7 ในปี 2015 ทั้งคู่ก็ได้ปะทะกันทั้งด้วยคารมและหมัดด้วยความมุ่ง หมายที่จะโค่นอีกฝ่ายให้ได้
    .
    .
    .
    แต่เมื่อบริกซ์ตัน (ไอดริส เอลบา) ผู้ชื่นชอบในลัทธิอนาธิปไตย และได้รับการปรับแต่งทางพันธุกรรมให้มีความสามารถสูง ขึ้น และมีอำนาจควบคุมภัยคุกคามร้ายกาจทางชีวะที่อาจเปลี่ ยนแปลงชีวิตของมนุษยชาติไปตลอดกาล และมีชัยเหนือเจ้าหน้าที่เอ็มไอซิกส์ผู้ชาญฉลาดและปร าศจากความกลัว (วาเนสซา เคอร์บี้จาก The Crown) ผู้บังเอิญเป็นน้องสาวของชอว์ ศัตรูคู่อาฆาตทั้งสองคนนี้ จึงจำเป็นต้องจับมือกันเพื่อโค่นล้มคนเพียงคนเดียวที ่อาจจะร้ายกาจยิ่งกว่าพวกเขา
    .
    .
    .
    Hobbs & Shaw เป็นการกระแทกเปิดประตูใหม่สู่จักรวาล Fast เมื่อแอ็กชั่นของมันพุ่งทะยานไปทั่วโลก จากลอสแองเจลิสสู่ลอนดอน และจากเมืองร้างที่เต็มไปด้วยสารพิษอย่างเชอร์โนบิล สู่ความงามที่เขียวชอุ่มของซามัว


    Format : Matroska
    Format version : Version 4
    File size : 4.44 GiB
    Duration : 2 h 15 min
    Overall bit rate : 4 675 kb/s
    Movie name : Fast.and.Furious.Presents.Hobbs.and.Shaw.2019.1080 [email protected]

    Video
    ID : 1
    Format : AVC
    Format/Info : Advanced Video Codec
    Format profile : [email protected]
    Format settings : CABAC / 4 Ref Frames
    Format settings, CABAC : Yes
    Format settings, RefFrames : 4 frames
    Codec ID : V_MPEG4/ISO/AVC
    Duration : 2 h 15 min
    Bit rate : 3 657 kb/s
    Width : 1 920 pixels
    Height : 800 pixels
    Display aspect ratio : 2.40:1
    Frame rate mode : Constant
    Frame rate : 23.976 (24000/1001) FPS
    Color space : YUV
    Chroma subsampling : 4:2:0
    Bit depth : 8 bits
    Scan type : Progressive
    Bits/(Pixel*Frame) : 0.099
    Stream size : 3.47 GiB (78%)
    Title : Fast.and.Furious.Presents.Hobbs.and.Shaw.2019.1080 [email protected]
    Language : English
    Default : Yes
    Forced : No
    Color range : Limited
    Color primaries : BT.709
    Transfer characteristics : BT.709
    Matrix coefficients : BT.709

    Audio #1
    ID : 2
    Format : AAC LC
    Format/Info : Advanced Audio Codec Low Complexity
    Codec ID : A_AAC-2
    Duration : 2 h 15 min
    Bit rate : 256 kb/s
    Channel(s) : 2 channels
    Channel layout : L R
    Sampling rate : 48.0 kHz
    Frame rate : 46.875 FPS (1024 SPF)
    Compression mode : Lossy
    Delay relative to video : 25 ms
    Stream size : 249 MiB (5%)
    Title : English Master
    Language : English
    Default : Yes
    Forced : No

    Audio #2
    ID : 3
    Format : AC-3
    Format/Info : Audio Coding 3
    Commercial name : Dolby Digital
    Codec ID : A_AC3
    Duration : 2 h 15 min
    Bit rate mode : Constant
    Bit rate : 640 kb/s
    Channel(s) : 2 channels
    Channel layout : L R
    Sampling rate : 44.1 kHz
    Frame rate : 28.711 FPS (1536 SPF)
    Bit depth : 16 bits
    Compression mode : Lossy
    Stream size : 622 MiB (14%)
    Title : Thai Rong
    Language : Thai
    Service kind : Complete Main
    Default : No
    Forced : No

    Text #1
    ID : 4
    Format : UTF-8
    Codec ID : S_TEXT/UTF8
    Codec ID/Info : UTF-8 Plain Text
    Duration : 2 h 1 min
    Bit rate : 61 b/s
    Count of elements : 1947
    Stream size : 54.9 KiB (0%)
    Title : English
    Language : English
    Default : No
    Forced : No

    Text #2
    ID : 5
    Format : VobSub
    Muxing mode : zlib
    Codec ID : S_VOBSUB
    Codec ID/Info : Picture based subtitle format used on DVDs
    Duration : 2 h 4 min
    Bit rate : 2 152 b/s
    Count of elements : 1997
    Stream size : 1.92 MiB (0%)
    Title : Thai 480P
    Language : Thai
    Default : No
    Forced : No

    Text #3
    ID : 6
    Format : VobSub
    Muxing mode : zlib
    Codec ID : S_VOBSUB
    Codec ID/Info : Picture based subtitle format used on DVDs
    Duration : 2 h 4 min
    Bit rate : 3 783 b/s
    Count of elements : 1997
    Stream size : 3.37 MiB (0%)
    Title : Thai 720P
    Language : Thai
    Default : No
    Forced : No

    Text #4
    ID : 7
    Format : VobSub
    Muxing mode : zlib
    Codec ID : S_VOBSUB
    Codec ID/Info : Picture based subtitle format used on DVDs
    Duration : 2 h 4 min
    Bit rate : 6 145 b/s
    Count of elements : 1997
    Stream size : 5.48 MiB (0%)
    Title : Thai 1080P
    Language : Thai
    Default : No
    Forced : No

    Text #5
    ID : 8
    Format : VobSub
    Muxing mode : zlib
    Codec ID : S_VOBSUB
    Codec ID/Info : Picture based subtitle format used on DVDs
    Duration : 2 h 4 min
    Bit rate : 7 269 b/s
    Count of elements : 1997
    Stream size : 6.48 MiB (0%)
    Title : Thai 1080P BIG
    Language : Thai
    Default : No
    Forced : No

    Text #6
    ID : 9
    Format : VobSub
    Muxing mode : zlib
    Codec ID : S_VOBSUB
    Codec ID/Info : Picture based subtitle format used on DVDs
    Duration : 2 h 4 min
    Bit rate : 6 145 b/s
    Count of elements : 1997
    Stream size : 5.48 MiB (0%)
    Title : Thai 1080P OUT
    Language : Thai
    Default : No
    Forced : No

    Text #7
    ID : 10
    Format : VobSub
    Muxing mode : zlib
    Codec ID : S_VOBSUB
    Codec ID/Info : Picture based subtitle format used on DVDs
    Duration : 2 h 4 min
    Bit rate : 7 268 b/s
    Count of elements : 1997
    Stream size : 6.48 MiB (0%)
    Title : Thai 1080P BIG[OUT]
    Language : Thai
    Default : No
    Forced : No

    Text #8
    ID : 11
    Format : VobSub
    Muxing mode : zlib
    Codec ID : S_VOBSUB
    Codec ID/Info : Picture based subtitle format used on DVDs
    Duration : 2 h 4 min
    Bit rate : 6 154 b/s
    Count of elements : 1997
    Stream size : 5.48 MiB (0%)
    Title : Thai 1080P Yellow
    Language : Thai
    Default : No
    Forced : No

    Text #9
    ID : 12
    Format : PGS
    Muxing mode : zlib
    Codec ID : S_HDMV/PGS
    Codec ID/Info : Picture based subtitle format used on BDs/HD-DVDs
    Duration : 2 h 4 min
    Bit rate : 21.3 kb/s
    Count of elements : 3998
    Stream size : 19.0 MiB (0%)
    Title : Thai PGS
    Language : Thai
    Default : Yes
    Forced : No

    Text #10
    ID : 13
    Format : PGS
    Muxing mode : zlib
    Codec ID : S_HDMV/PGS
    Codec ID/Info : Picture based subtitle format used on BDs/HD-DVDs
    Duration : 2 h 4 min
    Bit rate : 24.9 kb/s
    Count of elements : 3998
    Stream size : 22.2 MiB (0%)
    Title : Thai PGS BIG
    Language : Thai
    Default : No
    Forced : No

    Text #11
    ID : 14
    Format : PGS
    Muxing mode : zlib
    Codec ID : S_HDMV/PGS
    Codec ID/Info : Picture based subtitle format used on BDs/HD-DVDs
    Duration : 2 h 4 min
    Bit rate : 21.3 kb/s
    Count of elements : 3998
    Stream size : 19.0 MiB (0%)
    Title : Thai PGS OUT
    Language : Thai
    Default : No
    Forced : No

    Text #12
    ID : 15
    Format : PGS
    Muxing mode : zlib
    Codec ID : S_HDMV/PGS
    Codec ID/Info : Picture based subtitle format used on BDs/HD-DVDs
    Duration : 2 h 4 min
    Bit rate : 21.4 kb/s
    Count of elements : 3998
    Stream size : 19.1 MiB (0%)
    Title : Thai PGS Yellow
    Language : Thai
    Default : No
    Forced : No






















    Download: cornfile
    http://cornfile.com/hgqpgvmgo9lm
    Download: mekafile
    http://www.mekafile.com/dl.php?f=Ms9cd5bZT8Vx

  2. #2
    Senior Member
    Join Date
    Jun 2014
    Posts
    992
    Thanks
    0
    Thanked 0 Times in 0 Posts
    ขอบคุณครับ

+ Reply to Thread

Thread Information

Users Browsing this Thread

There are currently 1 users browsing this thread. (0 members and 1 guests)

     

Posting Permissions

  • You may not post new threads
  • You may not post replies
  • You may not post attachments
  • You may not edit your posts