+ Reply to Thread
Results 1 to 2 of 2
  1. #1
    Administrators Duckload.us's Avatar
    Join Date
    Dec 2010
    Posts
    107,709
    Thanks
    7
    Thanked 112,505 Times in 52,090 Posts

    Question [ҡ NETFLIX] Article 15 (2019) ҵ 15 [ҡ:Թ (Թ)][SUB:+ѧ][1080i/p] [AC-3][h264][Ѻµ鹩Ѻ NETFLIX PGS+Vobsub]








    Format : Matroska
    Format version : Version 4 / Version 2
    File size : 2.60 GiB
    Duration : 2 h 5 min
    Overall bit rate : 2 978 kb/s
    Movie name : [email protected]
    Encoded date : UTC 2019-09-07 11:45:35
    Writing application : mkvmerge v24.0.0 ('Beyond The Pale') 64-bit
    Writing library : libebml v1.3.6 + libmatroska v1.4.9

    Video
    ID : 1
    Format : AVC
    Format/Info : Advanced Video Codec
    Format profile : [email protected]
    Format settings, CABAC : Yes
    Format settings, RefFrames : 3 frames
    Codec ID : V_MPEG4/ISO/AVC
    Duration : 2 h 5 min
    Bit rate : 2 267 kb/s
    Width : 1 920 pixels
    Height : 1 080 pixels
    Display aspect ratio : 16:9
    Frame rate mode : Constant
    Frame rate : 25.000 FPS
    Color space : YUV
    Chroma subsampling : 4:2:0
    Bit depth : 8 bits
    Scan type : Progressive
    Bits/(Pixel*Frame) : 0.044
    Stream size : 1.98 GiB (76%)
    Default : Yes
    Forced : No
    Comment : NETFLIX BY ARGON

    Audio
    ID : 2
    Format : E-AC-3
    Format/Info : Enhanced Audio Coding 3
    Format settings, Endianness : Big
    Codec ID : A_EAC3
    Duration : 2 h 5 min
    Bit rate mode : Constant
    Bit rate : 640 kb/s
    Channel(s) : 6 channels
    Channel positions : Front: L C R, Side: L R, LFE
    Sampling rate : 48.0 kHz
    Frame rate : 187.500 FPS (256 SPF)
    Compression mode : Lossy
    Stream size : 573 MiB (21%)
    Title : HINDI AC3
    Language : Hindi
    Service kind : Complete Main
    Default : Yes
    Forced : No

    Text #1
    ID : 3
    Format : PGS
    Muxing mode : zlib
    Codec ID : S_HDMV/PGS
    Codec ID/Info : Picture based subtitle format used on BDs/HD-DVDs
    Duration : 2 h 4 min
    Bit rate : 56.8 kb/s
    Count of elements : 2984
    Stream size : 50.5 MiB (2%)
    Title : TH_PGS
    Language : Thai
    Default : Yes
    Forced : No

    Text #2
    ID : 4
    Format : VobSub
    Muxing mode : zlib
    Codec ID : S_VOBSUB
    Codec ID/Info : Picture based subtitle format used on DVDs
    Duration : 2 h 4 min
    Bit rate : 11.7 kb/s
    Count of elements : 1491
    Stream size : 10.4 MiB (0%)
    Title : TH_VOBSUB
    Language : Thai
    Default : No
    Forced : No

    Text #3
    ID : 5
    Format : VobSub
    Muxing mode : zlib
    Codec ID : S_VOBSUB
    Codec ID/Info : Picture based subtitle format used on DVDs
    Duration : 2 h 4 min
    Bit rate : 11.7 kb/s
    Count of elements : 1491
    Stream size : 10.4 MiB (0%)
    Title : TH_VOBSUB_YELLOW
    Language : Thai
    Default : No
    Forced : No

    Text #4
    ID : 6
    Format : PGS
    Muxing mode : zlib
    Codec ID : S_HDMV/PGS
    Codec ID/Info : Picture based subtitle format used on BDs/HD-DVDs
    Duration : 2 h 3 min
    Bit rate : 40.1 kb/s
    Count of elements : 2782
    Stream size : 35.4 MiB (1%)
    Title : EN_PGS
    Language : English
    Default : No
    Forced : No


    Download: cornfile
    http://cornfile.com/nt742pkwg71w
    Download: mekafile
    http://www.mekafile.com/dl.php?f=Tc16a3bYW2oQ

  2. The Following User Says Thank You to Duckload.us For This Useful Post:

    Tatum03 (11-03-2019)

  3. #2
    Senior Member
    Join Date
    Oct 2013
    Location
    Thailand
    Posts
    1,162
    Thanks
    1,036
    Thanked 0 Times in 0 Posts
    ͺسҡ

Thread Information

Users Browsing this Thread

There are currently 1 users browsing this thread. (0 members and 1 guests)

     

Posting Permissions

  • You may not post new threads
  • You may not post replies
  • You may not post attachments
  • You may not edit your posts