Back Street Girls: Gokudols_(2019)
3 หนุ่มจากแก๊งยากุซ่า เคนทาโร (ลูกพี่), เรียว (รองหัวหน้า) และ คาสุฮิโกะ (คาสุ) ที่ดันไปทำเรื่องไม่ดีเข้า
จนหัวหน้าของพวกเขารู้สึกไม่พอใจจนอยากจะสั่งฆ่าตัดต อนลูกกระจ๊อกทั้ง 3 คน แต่ด้วยไอเดียบรรเจิดของหัวหน้าที่พวกเขาเรียกว่า ป๊ะป๋า
ที่เคยเห็นวงไอดอลอย่าง AKB48 ประสบความสำเร็จ เขาจึงสั่งให้พวกเขาเลือกว่าจะยอมตายหรือจะไปแปลงผ่า ตัดเพศที่ประเทศไทย
แล้วกลายเป็นไอดอลเกิร์ลกรุ๊ปร้องเพลงอยู่บนเวที? 3 หนุ่มเลยจำใจเลือกอย่างหลัง แล้วก็เกิดเป็นกลุ่มไอดอลที่ชื่อว่า โกคุดอลส์
.
.
ภาพยนตร์เรื่องนี้สร้างโดยอ้างอิงมาจากมังงะเรื่อง Back Street Girls
โดย จัสมิน กิวห์ (Jasmine Gyuh) ตีพิมพ์เมื่อ 16 มีนาคม 2015 - 15 กันยายน 2018 ในนิตยสาร Weekly Young Magazine
ส่วนในประเทศไทยมี Luckpim เป็นเจ้าของลิขสิทธิ์!!!

Code:
Format                      : Matroska
Format version              : Version 4 / Version 2
File size                   : 6.27 GiB
Duration                    : 1 h 27 min
Overall bit rate            : 10.3 Mb/s
Movie name                  : Back.Stre[email protected]LaKraTos-Siambit

Video
ID                          : 1
Format                      : HEVC
Format/Info                 : High Efficiency Video Coding
Format profile              : Main [email protected]@High
Codec ID                    : V_MPEGH/ISO/HEVC
Duration                    : 1 h 27 min
Bit rate                    : 8 217 kb/s
Width                       : 1 920 pixels
Height                      : 804 pixels
Display aspect ratio        : 2.40:1
Frame rate mode             : Constant
Frame rate                  : 23.976 (24000/1001) FPS
Color space                 : YUV
Chroma subsampling          : 4:2:0
Bit depth                   : 10 bits
Bits/(Pixel*Frame)          : 0.222
Stream size                 : 5.02 GiB (80%)
Title                       : Back.Stre[email protected]LaKraTos-Siambit
Writing library             : x265 - H.265/HEVC codec
Language                    : Japanese
Default                     : Yes
Forced                      : No

Audio #1
ID                          : 2
Format                      : AC-3
Format/Info                 : Audio Coding 3
Format settings, Endianness : Big
Codec ID                    : A_AC3
Duration                    : 1 h 27 min
Bit rate mode               : Constant
Bit rate                    : 448 kb/s
Channel(s)                  : 6 channels
Channel positions           : Front: L C R, Side: L R, LFE
Sampling rate               : 48.0 kHz
Frame rate                  : 31.250 FPS (1536 spf)
Bit depth                   : 16 bits
Compression mode            : Lossy
Stream size                 : 280 MiB (4%)
Title                       : Thai DVD Master
Language                    : Thai
Service kind                : Complete Main
Default                     : Yes
Forced                      : Yes

Audio #2
ID                          : 3
Format                      : DTS
Format/Info                 : Digital Theater Systems
Mode                        : 16
Format settings, Endianness : Big
Codec ID                    : A_DTS
Duration                    : 1 h 27 min
Bit rate mode               : Constant
Bit rate                    : 1 509 kb/s
Channel(s)                  : 6 channels
Channel positions           : Front: L C R, Side: L R, LFE
Sampling rate               : 48.0 kHz
Frame rate                  : 93.750 FPS (512 spf)
Bit depth                   : 24 bits
Compression mode            : Lossy
Stream size                 : 944 MiB (15%)
Title                       : Japanese DTS-HD MA 5.1
Language                    : Japanese
Default                     : No
Forced                      : No

Text #1
ID                          : 4
Format                      : VobSub
Muxing mode                 : zlib
Codec ID                    : S_VOBSUB
Codec ID/Info               : Picture based subtitle format used on DVDs
Duration                    : 1 h 26 min
Bit rate                    : 1 636 b/s
Count of elements           : 887
Stream size                 : 1.02 MiB (0%)
Title                       : Thai 480p From DVD Master
Language                    : Thai
Default                     : No
Forced                      : No

Text #2
ID                          : 5
Format                      : VobSub
Muxing mode                 : zlib
Codec ID                    : S_VOBSUB
Codec ID/Info               : Picture based subtitle format used on DVDs
Duration                    : 1 h 27 min
Bit rate                    : 2 995 b/s
Count of elements           : 889
Stream size                 : 1.87 MiB (0%)
Title                       : Thai 720p
Language                    : Thai
Default                     : No
Forced                      : No

Text #3
ID                          : 6
Format                      : VobSub
Muxing mode                 : zlib
Codec ID                    : S_VOBSUB
Codec ID/Info               : Picture based subtitle format used on DVDs
Duration                    : 1 h 27 min
Bit rate                    : 4 848 b/s
Count of elements           : 889
Stream size                 : 3.03 MiB (0%)
Title                       : Thai 1080p
Language                    : Thai
Default                     : Yes
Forced                      : Yes

Text #4
ID                          : 7
Format                      : VobSub
Muxing mode                 : zlib
Codec ID                    : S_VOBSUB
Codec ID/Info               : Picture based subtitle format used on DVDs
Duration                    : 1 h 27 min
Bit rate                    : 4 848 b/s
Count of elements           : 889
Stream size                 : 3.03 MiB (0%)
Title                       : Thai 1080p Yellow
Language                    : Thai
Default                     : No
Forced                      : No

Text #5
ID                          : 8
Format                      : VobSub
Muxing mode                 : zlib
Codec ID                    : S_VOBSUB
Codec ID/Info               : Picture based subtitle format used on DVDs
Duration                    : 1 h 27 min
Bit rate                    : 4 880 b/s
Count of elements           : 889
Stream size                 : 3.05 MiB (0%)
Title                       : Thai 1080p Out
Language                    : Thai
Default                     : No
Forced                      : No

Text #6
ID                          : 9
Format                      : VobSub
Muxing mode                 : zlib
Codec ID                    : S_VOBSUB
Codec ID/Info               : Picture based subtitle format used on DVDs
Duration                    : 1 h 27 min
Bit rate                    : 6 370 b/s
Count of elements           : 889
Stream size                 : 3.98 MiB (0%)
Title                       : Thai 1080p BIG
Language                    : Thai
Default                     : No
Forced                      : No

Text #7
ID                          : 10
Format                      : VobSub
Muxing mode                 : zlib
Codec ID                    : S_VOBSUB
Codec ID/Info               : Picture based subtitle format used on DVDs
Duration                    : 1 h 27 min
Bit rate                    : 6 415 b/s
Count of elements           : 889
Stream size                 : 4.00 MiB (0%)
Title                       : Thai 1080p Out [BIG]
Language                    : Thai
Default                     : No
Forced                      : No

Text #8
ID                          : 11
Format                      : PGS
Muxing mode                 : zlib
Codec ID                    : S_HDMV/PGS
Codec ID/Info               : Picture based subtitle format used on BDs/HD-DVDs
Duration                    : 1 h 27 min
Bit rate                    : 15.7 kb/s
Count of elements           : 1782
Stream size                 : 9.82 MiB (0%)
Title                       : Thai PGS
Language                    : Thai
Default                     : No
Forced                      : No

Text #9
ID                          : 12
Format                      : PGS
Muxing mode                 : zlib
Codec ID                    : S_HDMV/PGS
Codec ID/Info               : Picture based subtitle format used on BDs/HD-DVDs
Duration                    : 1 h 27 min
Bit rate                    : 16.1 kb/s
Count of elements           : 1782
Stream size                 : 10.1 MiB (0%)
Title                       : Thai PGS Yellow
Language                    : Thai
Default                     : No
Forced                      : No

Text #10
ID                          : 13
Format                      : PGS
Muxing mode                 : zlib
Codec ID                    : S_HDMV/PGS
Codec ID/Info               : Picture based subtitle format used on BDs/HD-DVDs
Duration                    : 1 h 27 min
Bit rate                    : 16.0 kb/s
Count of elements           : 1782
Stream size                 : 9.96 MiB (0%)
Title                       : Thai PGS Out
Language                    : Thai
Default                     : No
Forced                      : No

Text #11
ID                          : 14
Format                      : VobSub
Muxing mode                 : zlib
Codec ID                    : S_VOBSUB
Codec ID/Info               : Picture based subtitle format used on DVDs
Duration                    : 1 h 26 min
Bit rate                    : 1 314 b/s
Count of elements           : 887
Stream size                 : 837 KiB (0%)
Title                       : English
Language                    : English
Default                     : No
Forced                      : No

Menu
00:00:00.000                : en:Chapter 01
00:13:05.910                : en:Chapter 02
00:38:15.293                : en:Chapter 03
01:00:05.227                : en:Chapter 04
 01:15:41.245                : en:Chapter 05











Download: cornfile
http://cornfile.com/im2h9qc9hwl0
Download: mekafile
http://www.mekafile.com/dl.php?f=bQbb9cc02f3n