+ Reply to Thread
Results 1 to 4 of 4
  1. #1
    Administrators Duckload.us's Avatar
    Join Date
    Dec 2010
    Posts
    107,002
    Thanks
    9
    Thanked 111,490 Times in 51,829 Posts

    Angry [ฝรั่ง]ใหม่.พากย์ไทยมาสเตอร์]-THE QUEENS CORGI (2019) จุ้นสี่ขา หมาเจ้านาย-[1080p.BluRay][ Sound:Eng DTS 5.1/Thai AC3 5.1:Master][SUB:Eng.PGS,SRT/VOB]



    ด้วยแรงบันดาลใจที่มาจากสุนัขทรงเลี้ยงสายพันธุ์คอร์ กี้ของสมเด็จพระรา ชินีนาถเอลิซาเบธที่ 2 กับเรื่องราวการผจญภัยของเจ้าคอร์กี้ตัวแสบ เร็กซ์ (แจ็ค ไวท์ฮอล) หลังจากพลัดหลงกับองค์ราชินี (จูลี่ วอลเทอร์ส) และเข้าไปพัวพันอยู่ท่ามกลางสนามรบของแก๊งอันธพาล 4 ขา ที่มีทุกเพศ
    ทุกวัย และทุกสายพันธุ์ แต่การผจญภัยเพื่อหาทางกลับไปสู่อ้อมกอดของราชินีนั้ นกลับทำให้เร็กซ์ ได้ค้นพบตัวเองและรู้จักถึงความรักที่เขาไม่เคยสัมผั ส

    Format : Matroska
    Format version : Version 4
    File size : 4.27 GiB
    Duration : 1 h 25 min
    Overall bit rate : 7 160 kb/s
    Movie name : The.Queen'[email protected] CUP
    Cover : Yes
    Attachments : cover.jpg

    Video
    ID : 1
    Format : AVC
    Format/Info : Advanced Video Codec
    Format profile : [email protected]
    Format settings : CABAC / 1 Ref Frames
    Format settings, CABAC : Yes
    Format settings, Reference : 1 frame
    Format settings, GOP : M=1, N=25
    Codec ID : V_MPEG4/ISO/AVC
    Duration : 1 h 25 min
    Bit rate mode : Constant
    Bit rate : 5 500 kb/s
    Width : 1 920 pixels
    Height : 1 072 pixels
    Display aspect ratio : 16:9
    Frame rate mode : Constant
    Frame rate : 29.970 (30000/1001) FPS
    Color space : YUV
    Chroma subsampling : 4:2:0
    Bit depth : 8 bits
    Scan type : Progressive
    Bits/(Pixel*Frame) : 0.089
    Stream size : 3.27 GiB (77%)
    Title : The.Queen'[email protected] CUP
    Language : English
    Default : Yes
    Forced : No

    Audio #1
    ID : 2
    Format : AC-3
    Format/Info : Audio Coding 3
    Commercial name : Dolby Digital
    Codec ID : A_AC3
    Duration : 1 h 25 min
    Bit rate mode : Constant
    Bit rate : 640 kb/s
    Channel(s) : 6 channels
    Channel layout : L R C LFE Ls Rs
    Sampling rate : 44.1 kHz
    Frame rate : 28.711 FPS (1536 SPF)
    Compression mode : Lossy
    Stream size : 390 MiB (9%)
    Title : 5.1 AC3 TH 640k 390m
    Language : Thai
    Service kind : Complete Main
    Default : Yes
    Forced : No

    Audio #2
    ID : 3
    Format : DTS
    Format/Info : Digital Theater Systems
    Codec ID : A_DTS
    Duration : 1 h 25 min
    Bit rate mode : Constant
    Bit rate : 992 kb/s
    Channel(s) : 6 channels
    Channel layout : C L R Ls Rs LFE
    Sampling rate : 12.0 kHz
    Frame rate : 11.719 FPS (1024 SPF)
    Bit depth : 16 bits
    Compression mode : Lossy
    Stream size : 605 MiB (14%)
    Title : 5.1 dts EN 992k-605m
    Language : English
    Default : No
    Forced : No

    Text #1
    ID : 4
    Format : PGS
    Muxing mode : zlib
    Codec ID : S_HDMV/PGS
    Codec ID/Info : Picture based subtitle format used on BDs/HD-DVDs
    Duration : 1 h 20 min
    Bit rate : 49.2 kb/s
    Count of elements : 2006
    Stream size : 28.3 MiB (1%)
    Title : PGS
    Language : English
    Default : Yes
    Forced : No

    Text #2
    ID : 5
    Format : UTF-8
    Codec ID : S_TEXT/UTF8
    Codec ID/Info : UTF-8 Plain Text
    Duration : 1 h 20 min
    Bit rate : 55 b/s
    Count of elements : 1003
    Stream size : 32.9 KiB (0%)
    Title : SRT
    Language : English
    Default : No
    Forced : No

    Text #3
    ID : 6
    Format : VobSub
    Muxing mode : zlib
    Codec ID : S_VOBSUB
    Codec ID/Info : Picture based subtitle format used on DVDs
    Duration : 1 h 20 min
    Bit rate : 9 903 b/s
    Count of elements : 1003
    Stream size : 5.70 MiB (0%)
    Title : VOB 1080P
    Language : English
    Default : No
    Forced : No

    Menu
    00:00:00.000 : :00:00:00.000
    00:03:52.125 : :00:03:52.083
    00:08:54.625 : :00:08:54.500
    00:13:57.708 : :00:13:57.583
    00:18:30.083 : :00:18:30.042
    00:24:00.917 : :00:24:00.792
    00:28:25.708 : :00:28:25.583
    00:33:18.500 : :00:33:18.417
    00:38:18.750 : :00:38:18.667
    00:44:12.500 : :00:44:12.417
    00:47:30.792 : :00:47:30.792
    00:53:28.000 : :00:53:27.917
    00:58:32.000 : :00:58:32.000
    01:04:31.667 : :01:04:31.625
    01:09:08.542 : :01:09:08.458
    01:14:36.833 : :01:14:36.833
    01:19:37.167 : :01:19:37.167
    01:24:32.333 : :01:24:32.292






    Download: cornfile
    http://cornfile.com/xdqc0wdh3wqx
    Download: mekafile
    meka อัพไม่ได้ครับ หนังค่าย M

  2. The Following 5 Users Say Thank You to Duckload.us For This Useful Post:

    apichartdear (10-11-2019), bigbang06 (10-10-2019), gaszolineskywalker (10-14-2019), Jodz14 (10-14-2019), smakha (Yesterday)

  3. #2
    Senior Member
    Join Date
    Dec 2013
    Posts
    1,800
    Thanks
    3,745
    Thanked 0 Times in 0 Posts
    ขอบคุณครับ...

  4. #3
    Senior Member
    Join Date
    Jun 2014
    Posts
    992
    Thanks
    0
    Thanked 0 Times in 0 Posts
    ขอบคุณครับ

  5. #4
    Senior Member
    Join Date
    Oct 2012
    Posts
    760
    Thanks
    1,697
    Thanked 0 Times in 0 Posts
    ขอบคุณครับ

+ Reply to Thread

Thread Information

Users Browsing this Thread

There are currently 1 users browsing this thread. (0 members and 1 guests)

     

Posting Permissions

  • You may not post new threads
  • You may not post replies
  • You may not post attachments
  • You may not edit your posts