+ Reply to Thread
Results 1 to 2 of 2
  1. #1
    Administrators Duckload.us's Avatar
    Join Date
    Dec 2010
    Posts
    107,776
    Thanks
    9
    Thanked 112,511 Times in 52,099 Posts

    Question [* ใหม่ ซับไทย iTunes *] The Lion King (2019) : เดอะ ไลอ้อน คิง [พากย์:อังกฤษ][SUB:ไทย][1080p] [เสียงอังกฤษ DTS] [บรรยายไทย + อังกฤษ] [ซับไทย มาสเตอร์ From iTunes + ซับ PGS คมชัด]




    เรื่องย่อ
    เรื่องราวของสิงโตแห่งผาทรนง เมื่อเจ้าป่ามูฟาซ่าถูกฆ่าตาย และสการ์น้องชายผู้ริษยา
    โยนความผิดนี้ให้กับซิมบ้า ลูกชายของมูฟาซ่า ทำให้ซิมบ้าต้องหนีอดีตอันแสนเจ็บปวดและยึดถือคติการ ดำรงชีวิตใหม่คือ “ฮากูน่า มาทาท่า”
    เรื่องราวของการผจญภัย โชคชะตา และความรัก สร้างจากแอนิเมชั่นที่ประสบความสำเร็จ กวาดรายได้ มากถึง 968 ล้านดอลล่าร์สหรัฐฯ

    Format : Matroska
    Format version : Version 4
    File size : 4.83 GiB
    Duration : 1 h 58 min
    Overall bit rate : 5 852 kb/s
    Movie name : The.Lion.King.2019.1080p.BluRay.DTS.x264_SkiesIT
    Encoded date : UTC 2019-10-12 02:43:45
    Writing application : mkvmerge v38.0.0 ('The Silent Type') 64-bit
    Writing library : libebml v1.3.9 + libmatroska v1.5.2
    Cover : Yes
    Attachments : small_cover.jpg / small_cover_land.jpg / cover.jpg / cover_land.jpg

    Video
    ID : 1
    Format : AVC
    Format/Info : Advanced Video Codec
    Format profile : [email protected]
    Format settings : CABAC / 4 Ref Frames
    Format settings, CABAC : Yes
    Format settings, Reference frames : 4 frames
    Codec ID : V_MPEG4/ISO/AVC
    Duration : 1 h 58 min
    Bit rate : 4 300 kb/s
    Width : 1 920 pixels
    Height : 1 080 pixels
    Display aspect ratio : 16:9
    Frame rate mode : Constant
    Frame rate : 23.976 (24000/1001) FPS
    Color space : YUV
    Chroma subsampling : 4:2:0
    Bit depth : 8 bits
    Scan type : Progressive
    Bits/(Pixel*Frame) : 0.086
    Stream size : 3.51 GiB (73%)
    Title : The.Lion.King.2019.1080p.BluRay.DTS.x264_SkiesIT
    Writing library : x264 core 157 r2935 545de2f
    Encoding settings : cabac=1 / ref=3 / deblock=1:0:0 / analyse=0x3:0x113 / me=hex / subme=7 / psy=1 / psy_rd=1.00:0.00 / mixed_ref=1 / me_range=16 / chroma_me=1 / trellis=1 / 8x8dct=1 / cqm=0 / deadzone=21,11 / fast_pskip=1 / chroma_qp_offset=-2 / threads=18 / lookahead_threads=3 / sliced_threads=0 / nr=0 / decimate=1 / interlaced=0 / bluray_compat=0 / constrained_intra=0 / bframes=3 / b_pyramid=2 / b_adapt=1 / b_bias=0 / direct=1 / weightb=1 / open_gop=0 / weightp=2 / keyint=240 / keyint_min=24 / scenecut=40 / intra_refresh=0 / rc_lookahead=40 / rc=abr / mbtree=1 / bitrate=4300 / ratetol=1.0 / qcomp=0.60 / qpmin=0 / qpmax=69 / qpstep=4 / vbv_maxrate=62500 / vbv_bufsize=78125 / nal_hrd=none / filler=0 / ip_ratio=1.40 / aq=1:1.00
    Language : English
    Default : Yes
    Forced : No
    Color range : Limited
    Color primaries : BT.709
    Transfer characteristics : BT.709
    Matrix coefficients : BT.709

    Audio
    ID : 2
    Format : DTS
    Format/Info : Digital Theater Systems
    Codec ID : A_DTS
    Duration : 1 h 58 min
    Bit rate mode : Constant
    Bit rate : 1 509 kb/s
    Channel(s) : 6 channels
    Channel layout : C L R Ls Rs LFE
    Sampling rate : 48.0 kHz
    Frame rate : 93.750 FPS (512 SPF)
    Bit depth : 24 bits
    Compression mode : Lossy
    Delay relative to video : -5 ms
    Stream size : 1.25 GiB (26%)
    Language : English
    Default : Yes
    Forced : No

    Text #1
    ID : 3
    Format : UTF-8
    Codec ID : S_TEXT/UTF8
    Codec ID/Info : UTF-8 Plain Text
    Duration : 1 h 55 min
    Bit rate : 105 b/s
    Count of elements : 1358
    Stream size : 89.1 KiB (0%)
    Title : Thai SRT
    Language : Thai
    Default : Yes
    Forced : No

    Text #2
    ID : 4
    Format : VobSub
    Muxing mode : zlib
    Codec ID : S_VOBSUB
    Codec ID/Info : Picture based subtitle format used on DVDs
    Duration : 1 h 55 min
    Bit rate : 10.4 kb/s
    Count of elements : 1358
    Stream size : 8.59 MiB (0%)
    Title : Thai 1080p
    Language : Thai
    Default : No
    Forced : No

    Text #3
    ID : 5
    Format : VobSub
    Muxing mode : zlib
    Codec ID : S_VOBSUB
    Codec ID/Info : Picture based subtitle format used on DVDs
    Duration : 1 h 55 min
    Bit rate : 10.4 kb/s
    Count of elements : 1358
    Stream size : 8.60 MiB (0%)
    Title : Thai 1080p Yellow
    Language : Thai
    Default : No
    Forced : No

    Text #4
    ID : 6
    Format : VobSub
    Muxing mode : zlib
    Codec ID : S_VOBSUB
    Codec ID/Info : Picture based subtitle format used on DVDs
    Duration : 1 h 55 min
    Bit rate : 12.4 kb/s
    Count of elements : 1358
    Stream size : 10.2 MiB (0%)
    Title : Thai 1080p [BIG]
    Language : Thai
    Default : No
    Forced : No

    Text #5
    ID : 7
    Format : PGS
    Muxing mode : zlib
    Codec ID : S_HDMV/PGS
    Codec ID/Info : Picture based subtitle format used on BDs/HD-DVDs
    Duration : 1 h 55 min
    Bit rate : 44.4 kb/s
    Count of elements : 2716
    Stream size : 36.8 MiB (1%)
    Title : Thai PGS
    Language : Thai
    Default : No
    Forced : No

    Text #6
    ID : 8
    Format : PGS
    Muxing mode : zlib
    Codec ID : S_HDMV/PGS
    Codec ID/Info : Picture based subtitle format used on BDs/HD-DVDs
    Duration : 1 h 55 min
    Bit rate : 44.4 kb/s
    Count of elements : 2716
    Stream size : 36.8 MiB (1%)
    Title : Thai PGS Yellow
    Language : Thai
    Default : No
    Forced : No

    Text #7
    ID : 9
    Format : PGS
    Muxing mode : zlib
    Codec ID : S_HDMV/PGS
    Codec ID/Info : Picture based subtitle format used on BDs/HD-DVDs
    Duration : 1 h 55 min
    Bit rate : 55.0 kb/s
    Count of elements : 2716
    Stream size : 45.5 MiB (1%)
    Title : Thai PGS [BIG]
    Language : Thai
    Default : No
    Forced : No

    Text #8
    ID : 10
    Format : PGS
    Muxing mode : zlib
    Codec ID : S_HDMV/PGS
    Codec ID/Info : Picture based subtitle format used on BDs/HD-DVDs
    Duration : 1 h 52 min
    Bit rate : 37.3 kb/s
    Count of elements : 3420
    Stream size : 29.8 MiB (1%)
    Title : English-PGS
    Language : English
    Default : No
    Forced : No









    Modified By SkiesIT

    ซับไทย iTunes
    Download: cornfile
    http://cornfile.com/7nq7pz4df12v
    Download: mekafile
    http://www.mekafile.com/dl.php?f=Mn0f75c0aoVF

    เสียงไทยโรง
    Download: cornfile
    http://cornfile.com/8j7n6oxd90us
    Download: mekafile
    http://www.mekafile.com/dl.php?f=bs775fc07HRm

  2. The Following 2 Users Say Thank You to Duckload.us For This Useful Post:

    amorn wichian (10-12-2019), mettset (10-12-2019)

  3. #2
    Senior Member
    Join Date
    Jun 2014
    Posts
    1,158
    Thanks
    0
    Thanked 0 Times in 0 Posts
    ขอบคุณครับ

+ Reply to Thread

Thread Information

Users Browsing this Thread

There are currently 1 users browsing this thread. (0 members and 1 guests)

     

Posting Permissions

  • You may not post new threads
  • You may not post replies
  • You may not post attachments
  • You may not edit your posts