+ Reply to Thread
Results 1 to 2 of 2
  1. #1
    Administrators Duckload.us's Avatar
    Join Date
    Dec 2010
    Posts
    107,912
    Thanks
    7
    Thanked 112,778 Times in 52,156 Posts

    Question Fast and Furious Presents Hobbs and Shaw 2019 [ҡ:Eng DD.DTS.5.1][SUB:Ѻ][1080p]



    Code:
    General
    Complete name                            : Fast and Furious Presents  Hobbs and Shaw  2019\Fast.and.Furious.Presents.Hobbs.and.Shaw.2019.1080p.WEB-DL\Fast.and.Furious.Presents.Hobbs.and.Shaw.2019.1080p.WEB-DL.DD.DTS.5.1.H264.mkv
    Format                                   : Matroska
    Format version                           : Version 4
    File size                                : 7.08 GiB
    Duration                                 : 2 h 15 min
    Overall bit rate                         : 7 458 kb/s
    Movie name                               : Fast.and.Furious.Presents.Hobbs.and.Shaw.2019.1080p.WEB-DL.DD5.1.H264-FGT
    Encoded date                             : UTC 2019-10-15 01:55:13
    Writing application                      : mkvmerge v38.0.0 ('The Silent Type') 64-bit
    Writing library                          : libebml v1.3.9 + libmatroska v1.5.2
    Cover                                    : Yes
    Attachments                              : cover_land.jpg / small_cover.jpg / small_cover_land.jpg / cover.jpg
    
    Video
    ID                                       : 1
    Format                                   : AVC
    Format/Info                              : Advanced Video Codec
    Format profile                           : [email protected]
    Format settings                          : CABAC / 5 Ref Frames
    Format settings, CABAC                   : Yes
    Format settings, Reference frames        : 5 frames
    Codec ID                                 : V_MPEG4/ISO/AVC
    Duration                                 : 2 h 15 min
    Bit rate                                 : 4 519 kb/s
    Width                                    : 1 916 pixels
    Height                                   : 798 pixels
    Display aspect ratio                     : 2.40:1
    Frame rate mode                          : Constant
    Frame rate                               : 23.976 (23976/1000) FPS
    Color space                              : YUV
    Chroma subsampling                       : 4:2:0
    Bit depth                                : 8 bits
    Scan type                                : Progressive
    Bits/(Pixel*Frame)                       : 0.123
    Stream size                              : 4.29 GiB (61%)
    Title                                    : Fast.and.Furious.Presents.Hobbs.and.Shaw.2019.1080p.WEB-DL.DD5.1.H264-FGT
    Language                                 : English
    Default                                  : Yes
    Forced                                   : No
    Color range                              : Limited
    Color primaries                          : BT.709
    Transfer characteristics                 : BT.709
    Matrix coefficients                      : BT.709
    
    Audio #1
    ID                                       : 2
    Format                                   : AC-3
    Format/Info                              : Audio Coding 3
    Commercial name                          : Dolby Digital
    Codec ID                                 : A_AC3
    Duration                                 : 2 h 15 min
    Bit rate mode                            : Constant
    Bit rate                                 : 384 kb/s
    Channel(s)                               : 6 channels
    Channel layout                           : L R C LFE Ls Rs
    Sampling rate                            : 48.0 kHz
    Frame rate                               : 31.250 FPS (1536 SPF)
    Bit depth                                : 16 bits
    Compression mode                         : Lossy
    Stream size                              : 373 MiB (5%)
    Title                                    : Fast.and.Furious.Presents.Hobbs.and.Shaw.2019.1080p.WEB-DL.DD5.1.H264-FGT
    Language                                 : English
    Service kind                             : Complete Main
    Default                                  : Yes
    Forced                                   : No
    
    Audio #2
    ID                                       : 3
    Format                                   : AC-3
    Format/Info                              : Audio Coding 3
    Commercial name                          : Dolby Digital
    Codec ID                                 : A_AC3
    Duration                                 : 2 h 15 min
    Bit rate mode                            : Constant
    Bit rate                                 : 640 kb/s
    Channel(s)                               : 6 channels
    Channel layout                           : L R C LFE Ls Rs
    Sampling rate                            : 48.0 kHz
    Frame rate                               : 31.250 FPS (1536 SPF)
    Bit depth                                : 16 bits
    Compression mode                         : Lossy
    Stream size                              : 622 MiB (9%)
    Language                                 : English
    Service kind                             : Complete Main
    Default                                  : No
    Forced                                   : No
    
    Audio #3
    ID                                       : 4
    Format                                   : DTS
    Format/Info                              : Digital Theater Systems
    Codec ID                                 : A_DTS
    Duration                                 : 2 h 15 min
    Bit rate mode                            : Constant
    Bit rate                                 : 1 509 kb/s
    Channel(s)                               : 6 channels
    Channel layout                           : C L R Ls Rs LFE
    Sampling rate                            : 48.0 kHz
    Frame rate                               : 93.750 FPS (512 SPF)
    Bit depth                                : 16 bits
    Compression mode                         : Lossy
    Stream size                              : 1.43 GiB (20%)
    Language                                 : English
    Default                                  : No
    Forced                                   : No
    
    Audio #4
    ID                                       : 5
    Format                                   : AC-3
    Format/Info                              : Audio Coding 3
    Commercial name                          : Dolby Digital
    Codec ID                                 : A_AC3
    Duration                                 : 2 h 15 min
    Bit rate mode                            : Constant
    Bit rate                                 : 384 kb/s
    Channel(s)                               : 6 channels
    Channel layout                           : L R C LFE Ls Rs
    Sampling rate                            : 48.0 kHz
    Frame rate                               : 31.250 FPS (1536 SPF)
    Bit depth                                : 16 bits
    Compression mode                         : Lossy
    Stream size                              : 373 MiB (5%)
    Title                                    : iTunes
    Language                                 : Russian
    Service kind                             : Complete Main
    Default                                  : No
    Forced                                   : Yes
    
    Text #1
    ID                                       : 6
    Format                                   : UTF-8
    Codec ID                                 : S_TEXT/UTF8
    Codec ID/Info                            : UTF-8 Plain Text
    Duration                                 : 1 h 1 min
    Bit rate                                 : 0 b/s
    Count of elements                        : 13
    Stream size                              : 346 Bytes (0%)
    Title                                    : FORCED
    Language                                 : English
    Default                                  : Yes
    Forced                                   : Yes
    
    Text #2
    ID                                       : 7
    Format                                   : UTF-8
    Codec ID                                 : S_TEXT/UTF8
    Codec ID/Info                            : UTF-8 Plain Text
    Duration                                 : 2 h 15 min
    Bit rate                                 : 65 b/s
    Count of elements                        : 2283
    Stream size                              : 65.1 KiB (0%)
    Language                                 : English
    Default                                  : No
    Forced                                   : No
    
    Text #3
    ID                                       : 8
    Format                                   : PGS
    Muxing mode                              : zlib
    Codec ID                                 : S_HDMV/PGS
    Codec ID/Info                            : Picture based subtitle format used on BDs/HD-DVDs
    Duration                                 : 2 h 5 min
    Bit rate                                 : 29.1 kb/s
    Count of elements                        : 4034
    Stream size                              : 26.2 MiB (0%)
    Language                                 : Thai
    Default                                  : No
    Forced                                   : No
    
    Text #4
    ID                                       : 9
    Format                                   : PGS
    Muxing mode                              : zlib
    Codec ID                                 : S_HDMV/PGS
    Codec ID/Info                            : Picture based subtitle format used on BDs/HD-DVDs
    Duration                                 : 2 h 5 min
    Bit rate                                 : 29.1 kb/s
    Count of elements                        : 4034
    Stream size                              : 26.2 MiB (0%)
    Language                                 : Thai
    Default                                  : No
    Forced                                   : No
    
    Menu
    00:00:00.000                             : en:1
    00:04:59.049                             : en:2
    00:13:44.491                             : en:3
    00:19:22.453                             : en:4
    00:26:46.980                             : en:5
    00:35:42.514                             : en:6
    00:40:14.244                             : en:7
    00:46:23.028                             : en:8
    00:51:35.214                             : en:9
    00:57:52.799                             : en:10
    01:01:54.248                             : en:11
    01:08:46.158                             : en:12
    01:14:23.829                             : en:13
    01:19:49.070                             : en:14
    01:25:00.255                             : en:15
    01:32:59.191                             : en:16
    01:38:49.916                             : en:17
    01:46:33.962                             : en:18
    01:53:30.585                             : en:19
     02:01:15.800                             : en:20






    credit: samecm

    Download: cornfile
    http://cornfile.com/j1exjs70pvhx
    Download: mekafile
    http://www.mekafile.com/dl.php?f=DE6616c0kCre

  2. #2
    Senior Member
    Join Date
    Jun 2014
    Posts
    1,204
    Thanks
    0
    Thanked 0 Times in 0 Posts
    ͺسѺ

Thread Information

Users Browsing this Thread

There are currently 1 users browsing this thread. (0 members and 1 guests)

     

Posting Permissions

  • You may not post new threads
  • You may not post replies
  • You may not post attachments
  • You may not edit your posts