+ Reply to Thread
Results 1 to 2 of 2
  1. #1
    Administrators Duckload.us's Avatar
    Join Date
    Dec 2010
    Posts
    107,802
    Thanks
    7
    Thanked 112,657 Times in 52,124 Posts

    Question [* ใหม่ร้อนๆ! *] Stuber (2019) : สตูเบอร์ [พากย์:อังกฤษ][SUB:ไทย][1080p] [เสียงอังกฤษ DTS] [บรรยายไทย + อังกฤษ] [ซับ PGS คมชัด]




    เรื่องย่อ
    เมื่อโชคชะตาเล่นตลก ให้หนุ่มหน้ามนคนจิตใจดีผู้ทำอาชีพเป็นอูเบอร์ชื่อว่ า สตู (คูมาล นานจิเอนี) รับผู้โดยสารอย่างตำรวจหน้าโหด วิค (เดฟ บาทิสต้า) ที่กำลังปฏิบัติหน้าที่ตามล่านักฆ่าสุดเหี้ยม สตูจึงถูกดึงเข้าไปร่วมภารกิจเสี่ยงตายโดยไม่มีสิทธิ ปฏิเสธสักคำ ซ้ำยังต้องใช้สติปัญญาทั้งหมดที่มีหาทางเอาชีวิตรอด และรักษาไม่ให้คะแนนอูเบอร์ 5 ดาวของเขากระทบกระเทือน!

    Code:
    Format                                   : Matroska
    Format version                           : Version 4
    File size                                : 4.35 GiB
    Duration                                 : 1 h 33 min
    Overall bit rate                         : 6 671 kb/s
    Movie name                               : Stuber.2019.1080p.BluRay.DTS.x264-SkiesIT
    Encoded date                             : UTC 2019-10-18 00:29:51
    Writing application                      : mkvmerge v38.0.0 ('The Silent Type') 64-bit
    Writing library                          : libebml v1.3.9 + libmatroska v1.5.2
    Cover                                    : Yes
    Attachments                              : small_cover.jpg / small_cover_land.jpg / cover.jpg / cover_land.jpg
    
    Video
    ID                                       : 1
    Format                                   : AVC
    Format/Info                              : Advanced Video Codec
    Format profile                           : [email protected]
    Format settings                          : CABAC / 4 Ref Frames
    Format settings, CABAC                   : Yes
    Format settings, Reference frames        : 4 frames
    Codec ID                                 : V_MPEG4/ISO/AVC
    Duration                                 : 1 h 33 min
    Bit rate                                 : 5 000 kb/s
    Width                                    : 1 920 pixels
    Height                                   : 808 pixels
    Display aspect ratio                     : 2.40:1
    Frame rate mode                          : Variable
    Frame rate                               : 23.976 FPS
    Color space                              : YUV
    Chroma subsampling                       : 4:2:0
    Bit depth                                : 8 bits
    Scan type                                : Progressive
    Bits/(Pixel*Frame)                       : 0.134
    Stream size                              : 3.26 GiB (75%)
    Title                                    : Stuber.2019.1080p.BluRay.DTS.x264-SkiesIT
    Writing library                          : x264 core 148
    Encoding settings                        : cabac=1 / ref=3 /  deblock=1:0:0 / analyse=0x3:0x113 / me=hex / subme=7 / psy=1 /  psy_rd=1.00:0.00 / mixed_ref=1 / me_range=16 / chroma_me=1 / trellis=1 /  8x8dct=1 / cqm=0 / deadzone=21,11 / fast_pskip=1 / chroma_qp_offset=-2 /  threads=9 / lookahead_threads=1 / sliced_threads=0 / nr=0 / decimate=1 /  interlaced=0 / bluray_compat=0 / constrained_intra=0 / bframes=3 /  b_pyramid=2 / b_adapt=1 / b_bias=0 / direct=1 / weightb=1 / open_gop=0 /  weightp=2 / keyint=250 / keyint_min=23 / scenecut=40 / intra_refresh=0 /  rc_lookahead=40 / rc=2pass / mbtree=1 / bitrate=5000 / ratetol=1.0 /  qcomp=0.60 / qpmin=0 / qpmax=69 / qpstep=4 / cplxblur=20.0 / qblur=0.5 /  ip_ratio=1.40 / aq=1:1.00
    Language                                 : English
    Default                                  : Yes
    Forced                                   : No
    
    Audio
    ID                                       : 2
    Format                                   : DTS
    Format/Info                              : Digital Theater Systems
    Codec ID                                 : A_DTS
    Duration                                 : 1 h 33 min
    Bit rate mode                            : Constant
    Bit rate                                 : 1 509 kb/s
    Channel(s)                               : 6 channels
    Channel layout                           : C L R Ls Rs LFE
    Sampling rate                            : 48.0 kHz
    Frame rate                               : 93.750 FPS (512 SPF)
    Bit depth                                : 24 bits
    Compression mode                         : Lossy
    Stream size                              : 1 008 MiB (23%)
    Title                                    : English DTS
    Language                                 : English
    Default                                  : Yes
    Forced                                   : No
    
    Text #1
    ID                                       : 3
    Format                                   : UTF-8
    Codec ID                                 : S_TEXT/UTF8
    Codec ID/Info                            : UTF-8 Plain Text
    Duration                                 : 1 h 32 min
    Bit rate                                 : 185 b/s
    Count of elements                        : 1818
    Stream size                              : 125 KiB (0%)
    Title                                    : Thai SRT
    Language                                 : Thai
    Default                                  : Yes
    Forced                                   : No
    
    Text #2
    ID                                       : 4
    Format                                   : VobSub
    Muxing mode                              : zlib
    Codec ID                                 : S_VOBSUB
    Codec ID/Info                            : Picture based subtitle format used on DVDs
    Duration                                 : 1 h 32 min
    Bit rate                                 : 19.0 kb/s
    Count of elements                        : 1818
    Stream size                              : 12.5 MiB (0%)
    Title                                    : Thai 1080p
    Language                                 : Thai
    Default                                  : No
    Forced                                   : No
    
    Text #3
    ID                                       : 5
    Format                                   : VobSub
    Muxing mode                              : zlib
    Codec ID                                 : S_VOBSUB
    Codec ID/Info                            : Picture based subtitle format used on DVDs
    Duration                                 : 1 h 32 min
    Bit rate                                 : 19.0 kb/s
    Count of elements                        : 1818
    Stream size                              : 12.5 MiB (0%)
    Title                                    : Thai 1080p Yellow
    Language                                 : Thai
    Default                                  : No
    Forced                                   : No
    
    Text #4
    ID                                       : 6
    Format                                   : VobSub
    Muxing mode                              : zlib
    Codec ID                                 : S_VOBSUB
    Codec ID/Info                            : Picture based subtitle format used on DVDs
    Duration                                 : 1 h 32 min
    Bit rate                                 : 22.6 kb/s
    Count of elements                        : 1818
    Stream size                              : 14.8 MiB (0%)
    Title                                    : Thai 1080p [BIG]
    Language                                 : Thai
    Default                                  : No
    Forced                                   : No
    
    Text #5
    ID                                       : 7
    Format                                   : PGS
    Muxing mode                              : zlib
    Codec ID                                 : S_HDMV/PGS
    Codec ID/Info                            : Picture based subtitle format used on BDs/HD-DVDs
    Duration                                 : 1 h 32 min
    Bit rate                                 : 80.1 kb/s
    Count of elements                        : 3636
    Stream size                              : 52.7 MiB (1%)
    Title                                    : Thai PGS
    Language                                 : Thai
    Default                                  : No
    Forced                                   : No
    
    Text #6
    ID                                       : 8
    Format                                   : PGS
    Muxing mode                              : zlib
    Codec ID                                 : S_HDMV/PGS
    Codec ID/Info                            : Picture based subtitle format used on BDs/HD-DVDs
    Duration                                 : 1 h 32 min
    Bit rate                                 : 80.1 kb/s
    Count of elements                        : 3636
    Stream size                              : 52.7 MiB (1%)
    Title                                    : Thai PGS Yellow
    Language                                 : Thai
    Default                                  : No
    Forced                                   : No
    
    Text #7
    ID                                       : 9
    Format                                   : PGS
    Muxing mode                              : zlib
    Codec ID                                 : S_HDMV/PGS
    Codec ID/Info                            : Picture based subtitle format used on BDs/HD-DVDs
    Duration                                 : 1 h 32 min
    Bit rate                                 : 99.2 kb/s
    Count of elements                        : 3636
    Stream size                              : 65.3 MiB (1%)
    Title                                    : Thai PGS [BIG]
    Language                                 : Thai
    Default                                  : No
    Forced                                   : No
    
    Text #8
    ID                                       : 10
    Format                                   : PGS
    Muxing mode                              : zlib
    Codec ID                                 : S_HDMV/PGS
    Codec ID/Info                            : Picture based subtitle format used on BDs/HD-DVDs
    Duration                                 : 1 h 27 min
    Bit rate                                 : 62.4 kb/s
    Count of elements                        : 4306
    Stream size                              : 38.9 MiB (1%)
    Title                                    : English-PGS
    Language                                 : English
    Default                                  : No
    Forced                                   : No










    Download: cornfile
    http://cornfile.com/ca11we5c1waz
    Download: mekafile
    http://www.mekafile.com/dl.php?f=4Cfe36c0pXHe

  2. #2
    Senior Member
    Join Date
    Jun 2014
    Posts
    1,189
    Thanks
    0
    Thanked 0 Times in 0 Posts
    ขอบคุณครับ

+ Reply to Thread

Thread Information

Users Browsing this Thread

There are currently 1 users browsing this thread. (0 members and 1 guests)

     

Posting Permissions

  • You may not post new threads
  • You may not post replies
  • You may not post attachments
  • You may not edit your posts