+ Reply to Thread
Results 1 to 2 of 2
  1. #1
    Administrators Duckload.us's Avatar
    Join Date
    Dec 2010
    Posts
    107,912
    Thanks
    7
    Thanked 112,782 Times in 52,156 Posts

    Question [NETFLIX] Seventeen (2019) 17 ¹š [ҡ:໹+ѧ][SUB:+ѧ][1080p] [AC-3][h264][Ѻµ鹩ѺNETFLIX PGS+Vobsub ]




    Seventeen



    Rating: 7.3/10 Year: 2019 Genres: Drama Runtime: 99 min Language: Spanish Director: Daniel Sánchez Arévalo Writers: Daniel Sánchez Arévalo / Araceli Sánchez Cast: Itsaso Arana / Iñigo Aranburu / Jorge CabreraPlot:

    n/A






    Code:
    Format                         : Matroska
    Format version                 : Version 4 / Version 2
    File size                      : 4.31 GiB
    Duration                       : 1 h 39 min
    Overall bit rate mode          : Variable
    Overall bit rate               : 6 180 kb/s
    Movie name                     : [email protected]
    Encoded date                   : UTC 2019-10-18 10:25:36
    Writing application            : mkvmerge v38.0.0 ('The Silent Type') 64-bit
    Writing library                : libebml v1.3.9 + libmatroska v1.5.2
    
    Video
    ID                             : 1
    Format                         : AVC
    Format/Info                    : Advanced Video Codec
    Format profile                 : [email protected]
    Format settings, CABAC         : Yes
    Format settings, RefFrames     : 3 frames
    Codec ID                       : V_MPEG4/ISO/AVC
    Duration                       : 1 h 39 min
    Bit rate mode                  : Variable
    Bit rate                       : 4 870 kb/s
    Maximum bit rate               : 7 305 kb/s
    Width                          : 1 920 pixels
    Height                         : 1 080 pixels
    Display aspect ratio           : 16:9
    Frame rate mode                : Constant
    Frame rate                     : 25.000 FPS
    Color space                    : YUV
    Chroma subsampling             : 4:2:0
    Bit depth                      : 8 bits
    Scan type                      : Progressive
    Bits/(Pixel*Frame)             : 0.094
    Stream size                    : 3.38 GiB (79%)
    Default                        : Yes
    Forced                         : No
    Comment                        : NETFLIX BY ARGON
    
    Audio #1
    ID                             : 2
    Format                         : E-AC-3
    Format/Info                    : Enhanced Audio Coding 3
    Format settings, Endianness    : Big
    Codec ID                       : A_EAC3
    Duration                       : 1 h 39 min
    Bit rate mode                  : Constant
    Bit rate                       : 640 kb/s
    Channel(s)                     : 6 channels
    Channel positions              : Front: L C R, Side: L R, LFE
    Sampling rate                  : 48.0 kHz
    Frame rate                     : 187.500 FPS (256 SPF)
    Compression mode               : Lossy
    Stream size                    : 456 MiB (10%)
    Title                          : Spanish [Original] / SPA AC3
    Language                       : Spanish
    Service kind                   : Complete Main
    Default                        : Yes
    Forced                         : No
    
    Audio #2
    ID                             : 3
    Format                         : E-AC-3
    Format/Info                    : Enhanced Audio Coding 3
    Format settings, Endianness    : Big
    Codec ID                       : A_EAC3
    Duration                       : 1 h 39 min
    Bit rate mode                  : Constant
    Bit rate                       : 640 kb/s
    Channel(s)                     : 6 channels
    Channel positions              : Front: L C R, Side: L R, LFE
    Sampling rate                  : 48.0 kHz
    Frame rate                     : 187.500 FPS (256 SPF)
    Compression mode               : Lossy
    Stream size                    : 457 MiB (10%)
    Title                          : EN AC3
    Language                       : English
    Service kind                   : Complete Main
    Default                        : No
    Forced                         : No
    
    Text #1
    ID                             : 4
    Format                         : PGS
    Muxing mode                    : zlib
    Codec ID                       : S_HDMV/PGS
    Codec ID/Info                  : Picture based subtitle format used on BDs/HD-DVDs
    Duration                       : 1 h 39 min
    Bit rate                       : 22.6 kb/s
    Count of elements              : 2744
    Stream size                    : 16.1 MiB (0%)
    Title                          : TH_PGS
    Language                       : Thai
    Default                        : Yes
    Forced                         : No
    
    Text #2
    ID                             : 5
    Format                         : VobSub
    Muxing mode                    : zlib
    Codec ID                       : S_VOBSUB
    Codec ID/Info                  : Picture based subtitle format used on DVDs
    Duration                       : 1 h 39 min
    Bit rate                       : 5 561 b/s
    Count of elements              : 1372
    Stream size                    : 3.95 MiB (0%)
    Title                          : TH_VOBSUB
    Language                       : Thai
    Default                        : No
    Forced                         : No
    
    Text #3
    ID                             : 6
    Format                         : VobSub
    Muxing mode                    : zlib
    Codec ID                       : S_VOBSUB
    Codec ID/Info                  : Picture based subtitle format used on DVDs
    Duration                       : 1 h 39 min
    Bit rate                       : 5 558 b/s
    Count of elements              : 1372
    Stream size                    : 3.95 MiB (0%)
    Title                          : TH_VOBSUB_YELLOW
    Language                       : Thai
    Default                        : No
    Forced                         : No
    
    Text #4
    ID                             : 7
    Format                         : PGS
    Muxing mode                    : zlib
    Codec ID                       : S_HDMV/PGS
    Codec ID/Info                  : Picture based subtitle format used on BDs/HD-DVDs
    Duration                       : 1 h 36 min
    Bit rate                       : 51.2 kb/s
    Count of elements              : 3024
    Stream size                    : 35.3 MiB (1%)
    Title                          : EN_PGS
    Language                       : English
    Default                        : No
    Forced                         : No







    Download: cornfile
    http://cornfile.com/onaeq4ze30ob
    Download: mekafile
    http://www.mekafile.com/dl.php?f=5j578dc0q6EI

  2. #2
    Senior Member
    Join Date
    Jun 2014
    Posts
    1,204
    Thanks
    0
    Thanked 0 Times in 0 Posts
    ͺسѺ

Thread Information

Users Browsing this Thread

There are currently 1 users browsing this thread. (0 members and 1 guests)

     

Posting Permissions

  • You may not post new threads
  • You may not post replies
  • You may not post attachments
  • You may not edit your posts