+ Reply to Thread
Results 1 to 4 of 4
  1. #1
    Administrators Duckload.us's Avatar
    Join Date
    Dec 2010
    Posts
    107,802
    Thanks
    7
    Thanked 112,657 Times in 52,124 Posts

    Question (เกาหลี.ใหม่.พากย์ไทยมาสเตอร์)-THE NEGOTIATION (2018)-[1080p.BluRay][ Sound:Korean DTS 5.1/Thai AC3 5.1:Master][SUB:Eng/Thai.PGS/VOB]




    เมื่อใดที่ผู้ก่อการร้ายมีข้อเรียกร้อง ย่อมหมายถึงการกดดันต่อรองด้วยชีวิตตัวประกันผู้บริส ุทธิ์
    งานเดิมพันชีวิตนี้จึงมีเพียง Negotiator (นักเจรจาต่อรอง) มืออาชีพเท่านั้น ที่จะรับมือกับสถานการณ์อันอ่อนไหว
    และจำกัดเวลา ซนเยจิน กับบทบาท negotiator ที่น่าจับตามองว่าเธอจะรับมือกับวายร้ายอย่างไร เบื้องหลังการก่อการของเขาคืออะไร
    และที่น่าติดตามยิ่งกว่า เมื่อวายร้ายเลือดเย็นคนนั้น คือ ฮยอนบินที่พลิกบทเกินคาด เป็นตัวร้ายครั้งแรกในชีวิตการแสดง

    Code:
    Format                      : Matroska
    Format version              : Version 4
    File size                   : 4.32 GiB
    Duration                    : 1 h 52 min
    Overall bit rate            : 5 479 kb/s
    Movie name                  : The.Negotiation.2018.1080p.BrRip.DTS.x264_❇GOLD CUP™
    Attachments                 : cover.jpg
    
    Video
    ID                          : 1
    Format                      : AVC
    Format/Info                 : Advanced Video Codec
    Format profile              : [email protected]
    Format settings             : CABAC / 1 Ref Frames
    Format settings, CABAC      : Yes
    Format settings, Reference  : 1 frame
    Format settings, GOP        : M=1, N=25
    Codec ID                    : V_MPEG4/ISO/AVC
    Duration                    : 1 h 52 min
    Bit rate mode               : Constant
    Bit rate                    : 4 000 kb/s
    Width                       : 1 920 pixels
    Height                      : 808 pixels
    Display aspect ratio        : 2.40:1
    Frame rate mode             : Constant
    Frame rate                  : 29.970 (30000/1001) FPS
    Color space                 : YUV
    Chroma subsampling          : 4:2:0
    Bit depth                   : 8 bits
    Scan type                   : Progressive
    Bits/(Pixel*Frame)          : 0.086
    Stream size                 : 3.15 GiB (73%)
    Title                       : The.Negotiation.2018.1080p.BrRip.DTS.x264_❇GOLD CUP™
    Language                    : Korean
    Default                     : Yes
    Forced                      : No
    
    Audio #1
    ID                          : 2
    Format                      : AC-3
    Format/Info                 : Audio Coding 3
    Commercial name             : Dolby Digital
    Codec ID                    : A_AC3
    Duration                    : 1 h 52 min
    Bit rate mode               : Constant
    Bit rate                    : 640 kb/s
    Channel(s)                  : 6 channels
    Channel layout              : L R C LFE Ls Rs
    Sampling rate               : 44.1 kHz
    Frame rate                  : 28.711 FPS (1536 SPF)
    Compression mode            : Lossy
    Stream size                 : 517 MiB (12%)
    Title                       : 5.1 AC3 TH 640k 517m
    Language                    : Thai
    Service kind                : Complete Main
    Default                     : Yes
    Forced                      : No
    
    Audio #2
    ID                          : 3
    Format                      : DTS
    Format/Info                 : Digital Theater Systems
    Codec ID                    : A_DTS
    Duration                    : 1 h 52 min
    Bit rate mode               : Constant
    Bit rate                    : 768 kb/s
    Channel(s)                  : 6 channels
    Channel layout              : C L R Ls Rs LFE
    Sampling rate               : 48.0 kHz
    Frame rate                  : 93.750 FPS (512 SPF)
    Bit depth                   : 16 bits
    Compression mode            : Lossy
    Stream size                 : 620 MiB (14%)
    Language                    : Korean
    Default                     : No
    Forced                      : No
    
    Text #1
    ID                          : 4
    Format                      : VobSub
    Muxing mode                 : zlib
    Codec ID                    : S_VOBSUB
    Codec ID/Info               : Picture based subtitle format used on DVDs
    Duration                    : 1 h 47 min
    Bit rate                    : 10.2 kb/s
    Count of elements           : 1414
    Stream size                 : 7.86 MiB (0%)
    Title                       : Thai 1080p
    Language                    : Thai
    Default                     : Yes
    Forced                      : No
    
    Text #2
    ID                          : 5
    Format                      : VobSub
    Muxing mode                 : zlib
    Codec ID                    : S_VOBSUB
    Codec ID/Info               : Picture based subtitle format used on DVDs
    Duration                    : 1 h 51 min
    Bit rate                    : 9 811 b/s
    Count of elements           : 1415
    Stream size                 : 7.85 MiB (0%)
    Title                       : Thai 1080p Yellow
    Language                    : Thai
    Default                     : No
    Forced                      : No
    
    Text #3
    ID                          : 6
    Format                      : VobSub
    Muxing mode                 : zlib
    Codec ID                    : S_VOBSUB
    Codec ID/Info               : Picture based subtitle format used on DVDs
    Duration                    : 1 h 51 min
    Bit rate                    : 13.6 kb/s
    Count of elements           : 1415
    Stream size                 : 10.9 MiB (0%)
    Title                       : Thai 1080p Out [BIG]
    Language                    : Thai
    Default                     : No
    Forced                      : No
    
    Text #4
    ID                          : 7
    Format                      : PGS
    Muxing mode                 : zlib
    Codec ID                    : S_HDMV/PGS
    Codec ID/Info               : Picture based subtitle format used on BDs/HD-DVDs
    Duration                    : 1 h 52 min
    Bit rate                    : 41.1 kb/s
    Count of elements           : 2836
    Stream size                 : 33.2 MiB (1%)
    Title                       : Thai PGS Yellow
    Language                    : Thai
    Default                     : No
    Forced                      : No
    
    Text #5
    ID                          : 8
    Format                      : PGS
    Muxing mode                 : zlib
    Codec ID                    : S_HDMV/PGS
    Codec ID/Info               : Picture based subtitle format used on BDs/HD-DVDs
    Duration                    : 1 h 52 min
    Bit rate                    : 41.0 kb/s
    Count of elements           : 2836
    Stream size                 : 33.1 MiB (1%)
    Title                       : Thai PGS
    Language                    : Thai
    Default                     : No
    Forced                      : No
    
    Text #6
    ID                          : 9
    Format                      : PGS
    Muxing mode                 : zlib
    Codec ID                    : S_HDMV/PGS
    Codec ID/Info               : Picture based subtitle format used on BDs/HD-DVDs
    Duration                    : 1 h 47 min
    Bit rate                    : 38.5 kb/s
    Count of elements           : 2800
    Stream size                 : 29.6 MiB (1%)
    Title                       : English
    Language                    : English
    Default                     : No
    Forced                      : No
    
    Menu
    00:00:00.000                : en:Chapter 1
    00:08:17.542                : en:Chapter 2
    00:18:17.458                : en:Chapter 3
    00:27:59.250                : en:Chapter 4
    00:37:18.333                : en:Chapter 5
    00:47:18.250                : en:Chapter 6
    00:56:45.833                : en:Chapter 7
    01:03:30.333                : en:Chapter 8
    01:15:11.667                : en:Chapter 9
    01:23:53.750                : en:Chapter 10
    01:34:39.292                : en:Chapter 11
    01:45:40.667                : en:Chapter 12





    Download: cornfile
    http://cornfile.com/mnb2a1t0o9o2
    Download: mekafile
    http://www.mekafile.com/dl.php?f=vl58c3c0s8cn

  2. The Following 4 Users Say Thank You to Duckload.us For This Useful Post:

    amorn wichian (10-22-2019), apichartdear (10-20-2019), chakhrit (10-19-2019), jangska (10-22-2019)

  3. #2
    Senior Member
    Join Date
    Jun 2014
    Posts
    1,189
    Thanks
    0
    Thanked 0 Times in 0 Posts
    ขอบคุณครับ

  4. #3
    Senior Member
    Join Date
    Dec 2013
    Posts
    1,819
    Thanks
    3,757
    Thanked 0 Times in 0 Posts
    ขอบคุณนะครับ...

  5. #4
    Member
    Join Date
    Jul 2013
    Posts
    52
    Thanks
    0
    Thanked 0 Times in 0 Posts
    ขอบคุณครับ เพิ่งดูไปแป๊บๆแต่ไม่จบ มาสานต่อให้จบ

+ Reply to Thread

Thread Information

Users Browsing this Thread

There are currently 1 users browsing this thread. (0 members and 1 guests)

     

Posting Permissions

  • You may not post new threads
  • You may not post replies
  • You may not post attachments
  • You may not edit your posts