+ Reply to Thread
Results 1 to 3 of 3
  1. #1
    Administrators Duckload.us's Avatar
    Join Date
    Dec 2010
    Posts
    107,802
    Thanks
    7
    Thanked 112,657 Times in 52,124 Posts

    Question (v.1)**Maleficent 2 Mistress of Evil** มาเลฟิเซนต์ นางพญาปีศาจ 2019 ชัด 95% 720p. Rip [เสียงไทยโรงชัด ]



    เรื่องย่อ
    เรื่องราวสานต่อจากภาคแรก เมื่อเจ้าหญิงออโรร่าต้องการแต่งงานกับเจ้าชายแต่ มาเลฟิเซนต์ไม่เห็นด้วย ก่อให้เกิดชนวนศึกครั้งใหม่ เมื่อราชินีอิงกริต (รับบทโดยมิเชล ไฟเฟอร์) ตั้งกองกำลังทหารเพื่อสู้กับมาเลฟิเซนต์ และ เผ่าพันธุ์สัตว์วิเศษ เรื่องราวก้าวข้ามเทพนิยายสู่แอคชั่นแฟนตาซีฟอร์มยัก ษ์ และการกลับมาอีกครั้งของ แองเจลิน่า โจลี่ สยายปีกนางฟ้าปีศาจในบทของมาเลฟิเซนต์

    Format : MPEG-4
    Format profile : Base Media
    Codec ID : isom (isom/iso2/avc1/mp41)
    File size : 970 MiB
    Duration : 1 h 50 min
    Overall bit rate : 1 224 kb/s
    Movie name : "wAlCX1rPQibMoz8PedhCm03hKMWUtrtP"
    Writing application : Lavf57.83.100

    Video
    ID : 1
    Format : AVC
    Format/Info : Advanced Video Codec
    Format profile : [email protected]
    Format settings : CABAC / 5 Ref Frames
    Format settings, CABAC : Yes
    Format settings, Reference frames : 5 frames
    Codec ID : avc1
    Codec ID/Info : Advanced Video Coding
    Duration : 1 h 50 min
    Bit rate : 1 088 kb/s
    Width : 1 280 pixels
    Height : 528 pixels
    Display aspect ratio : 2.40:1
    Frame rate mode : Constant
    Frame rate : 24.000 FPS
    Color space : YUV
    Chroma subsampling : 4:2:0
    Bit depth : 8 bits
    Scan type : Progressive
    Bits/(Pixel*Frame) : 0.067
    Stream size : 865 MiB (89%)
    Writing library : x264 core 148 r2643 5c65704
    Encoding settings : cabac=1 / ref=5 / deblock=1:0:0 / analyse=0x3:0x113 / me=hex / subme=7 / psy=1 / psy_rd=1.00:0.00 / mixed_ref=1 / me_range=16 / chroma_me=1 / trellis=1 / 8x8dct=1 / cqm=0 / deadzone=21,11 / fast_pskip=1 / chroma_qp_offset=-2 / threads=8 / lookahead_threads=8 / sliced_threads=1 / slices=8 / nr=0 / decimate=1 / interlaced=0 / bluray_compat=0 / constrained_intra=0 / bframes=0 / weightp=2 / keyint=250 / keyint_min=24 / scenecut=40 / intra_refresh=0 / rc=abr / mbtree=0 / bitrate=1088 / ratetol=1.0 / qcomp=0.60 / qpmin=0 / qpmax=69 / qpstep=4 / ip_ratio=1.40 / aq=1:1.00
    Codec configuration box : avcC

    Audio
    ID : 2
    Format : AAC LC
    Format/Info : Advanced Audio Codec Low Complexity
    Codec ID : mp4a-40-2
    Duration : 1 h 50 min
    Bit rate mode : Constant
    Bit rate : 128 kb/s
    Channel(s) : 2 channels
    Channel layout : L R
    Sampling rate : 44.1 kHz
    Frame rate : 43.066 FPS (1024 SPF)
    Compression mode : Lossy
    Stream size : 101 MiB (10%)
    Default : Yes
    Alternate group : 1





    Download: cornfile
    http://cornfile.com/3zdgaknweu4w
    Download: mekafile
    http://www.mekafile.com/dl.php?f=i2f206c0uKjt

  2. The Following User Says Thank You to Duckload.us For This Useful Post:

    Tellmon (10-22-2019)

  3. #2
    Senior Member
    Join Date
    Jun 2014
    Posts
    1,189
    Thanks
    0
    Thanked 0 Times in 0 Posts
    ขอบคุณครับ

  4. #3
    Senior Member
    Join Date
    Dec 2013
    Posts
    1,819
    Thanks
    3,757
    Thanked 0 Times in 0 Posts
    ขอบคุณนะครับ...

+ Reply to Thread

Thread Information

Users Browsing this Thread

There are currently 1 users browsing this thread. (0 members and 1 guests)

     

Posting Permissions

  • You may not post new threads
  • You may not post replies
  • You may not post attachments
  • You may not edit your posts