+ Reply to Thread
Results 1 to 2 of 2
  1. #1
    Administrators Duckload.us's Avatar
    Join Date
    Dec 2010
    Posts
    107,802
    Thanks
    7
    Thanked 112,657 Times in 52,124 Posts

    Question [ฝรั่ง]-(ใหม่.พากย์ไทยโรง)-Mary (2019) เรือปีศาจ-[HQ1080p][Eng AC3 5.1+Thai Rong AC3 2.0:Modifide]-WEB-DL.H.264.1080p. [Modified]-[พากย์ไทยโรง]



    เรื่องราวของ เดวิด (แกรี่ โอลด์แมน) ได้ซื้อเรือหรูลำหนึ่งที่ชื่อว่า แมรี่ เขาหวังว่าเรือลำนี้จะทำให้ชีวิตของครอบครัว

    เขาดีกว่าเดิมโดยไม่รู้เรื่องอดีตอันน่าขนลุกของมัน เมื่อพวกเขานำเรือออกทริป ก็เกิดเหตุการณ์เหนือธรรมชาติคอยคุกคามชีวิตของครอบค รัวเขาจนทำให้เรือ

    เดินออกนอกเส้นทาง และแล้วพวกเขาก็ต้องเผชิญหน้ากับความสยองครั้งใหญ่กล างทะเลลึก ซึ่งมันอาจจะเป็นทริปสุดท้ายของชีวิต!

    Code:
    Format                      : Matroska
    Format version              : Version 4
    File size                   : 3.54 GiB
    Duration                    : 1 h 24 min
    Overall bit rate            : 5 993 kb/s
    Movie name                  : Mary.2019.1080p.WEBRip.x264-THR-©   Gold Cup™  
    Encoded date                : UTC 2019-11-04 13:48:27
    Writing application         : mkvmerge v38.0.0 ('The Silent Type') 64-bit
    Writing library             : libebml v1.3.9 + libmatroska v1.5.2
    Cover                       : Yes
    Attachments                 : cover.jpg
    
    Video
    ID                          : 1
    Format                      : AVC
    Format/Info                 : Advanced Video Codec
    Format profile              : [email protected]
    Format settings             : CABAC / 1 Ref Frames
    Format settings, CABAC      : Yes
    Format settings, Reference  : 1 frame
    Format settings, GOP        : M=1, N=25
    Codec ID                    : V_MPEG4/ISO/AVC
    Duration                    : 1 h 24 min
    Bit rate mode               : Constant
    Bit rate                    : 5 000 kb/s
    Width                       : 1 920 pixels
    Height                      : 800 pixels
    Display aspect ratio        : 2.40:1
    Frame rate mode             : Constant
    Frame rate                  : 29.970 (30000/1001) FPS
    Color space                 : YUV
    Chroma subsampling          : 4:2:0
    Bit depth                   : 8 bits
    Scan type                   : Progressive
    Bits/(Pixel*Frame)          : 0.109
    Stream size                 : 2.95 GiB (83%)
    Title                       : Mary.2019.1080p.WEBRip.x264-THR-©   Gold Cup™  
    Language                    : English
    Default                     : Yes
    Forced                      : No
    
    Audio #1
    ID                          : 2
    Format                      : AC-3
    Format/Info                 : Audio Coding 3
    Commercial name             : Dolby Digital
    Codec ID                    : A_AC3
    Duration                    : 1 h 24 min
    Bit rate mode               : Constant
    Bit rate                    : 320 kb/s
    Channel(s)                  : 2 channels
    Channel layout              : L R
    Sampling rate               : 44.1 kHz
    Frame rate                  : 28.711 FPS (1536 SPF)
    Bit depth                   : 16 bits
    Compression mode            : Lossy
    Stream size                 : 194 MiB (5%)
    Title                       : 2.0 AC3 Thr 194k 320m
    Language                    : Thai
    Service kind                : Complete Main
    Default                     : Yes
    Forced                      : No
    
    
    Audio #2
    ID                          : 3
    Format                      : AC-3
    Format/Info                 : Audio Coding 3
    Commercial name             : Dolby Digital
    Codec ID                    : A_AC3
    Duration                    : 1 h 24 min
    Bit rate mode               : Constant
    Bit rate                    : 640 kb/s
    Channel(s)                  : 6 channels
    Channel layout              : L R C LFE Ls Rs
    Sampling rate               : 44.1 kHz
    Frame rate                  : 28.711 FPS (1536 SPF)
    Bit depth                   : 16 bits
    Compression mode            : Lossy
    Stream size                 : 387 MiB (11%)
    Title                       : 5.1 AC3 Eng 640k 387m
    Language                    : English
    Service kind                : Complete Main
    Default                     : No
    Forced                      : No
    
    Text #1
    ID                          : 4
    Format                      : PGS
    Muxing mode                 : zlib
    Codec ID                    : S_HDMV/PGS
    Codec ID/Info               : Picture based subtitle format used on BDs/HD-DVDs
    Duration                    : 1 h 17 min
    Bit rate                    : 29.6 kb/s
    Count of elements           : 1626
    Stream size                 : 16.4 MiB (0%)
    Title                       : PGS 1080p
    Language                    : English
    Default                     : Yes
    Forced                      : No
    
    Text #2
    ID                          : 5
    Format                      : PGS
    Muxing mode                 : zlib
    Codec ID                    : S_HDMV/PGS
    Codec ID/Info               : Picture based subtitle format used on BDs/HD-DVDs
    Duration                    : 1 h 23 min
    Bit rate                    : 31.7 kb/s
    Count of elements           : 1864
    Stream size                 : 18.9 MiB (1%)
    Title                       : -Hearing Impaired=ผู้บกพร่องทางเสียง-PGS
    Language                    : English
    Default                     : No
    Forced                      : No




    Download: cornfile
    http://cornfile.com/cz2nuslxnum6
    Download: mekafile
    http://www.mekafile.com/dl.php?f=htd2afc19vlo

  2. The Following User Says Thank You to Duckload.us For This Useful Post:

    smakha (11-08-2019)

  3. #2
    Senior Member
    Join Date
    Jun 2014
    Posts
    1,189
    Thanks
    0
    Thanked 0 Times in 0 Posts
    ขอบคุณครับ

+ Reply to Thread

Thread Information

Users Browsing this Thread

There are currently 1 users browsing this thread. (0 members and 1 guests)

     

Posting Permissions

  • You may not post new threads
  • You may not post replies
  • You may not post attachments
  • You may not edit your posts