+ Reply to Thread
Results 1 to 5 of 5
  1. #1
    Administrators Duckload.us's Avatar
    Join Date
    Dec 2010
    Posts
    107,802
    Thanks
    7
    Thanked 112,657 Times in 52,124 Posts

    Question (..Ҿ HQ.SUB:ENG+ҡç)-THE CURRENT WAR (2019) ʧ俿 Ѩ-[WEB-RIP.1080p][ Sound:Eng AC3 5.1+Thai Rong AC3 2.0][SUB:Eng.PGS]




    Ѩйѡдɰ ʹѹ (๴Ԥ ẵ) Ҿ͹·عҧ ਾ ᡹ ( 礿¹) Ѻ͡ѹͼѡѹ俿ҡʵç (DC) ǡҵͧ༪ԭѺõ͵ҹɮըҡ ʵԧ ( ᪹͹) ǡ ѡдɰ йѡáԨԡѹ ʹѺʹعɮ俿ҡѺ (AC) Ѻêͨҡ (ŷ) ա˹ѨйѡдɰԴؤǡѹѺ ʹѹ

    Format : Matroska
    Format version : Version 4
    File size : 4.16 GiB
    Duration : 1 h 48 min
    Overall bit rate : 5 479 kb/s
    Movie name : The.Current.War.Director's.Cut.2017.1080p.BluRay.T HR_©Gold Cup™
    Video
    ID : 1
    Format : AVC
    Format/Info : Advanced Video Codec
    Format profile : [email protected]
    Format settings : CABAC / 1 Ref Frames
    Format settings, CABAC : Yes
    Format settings, Reference : 1 frame
    Format settings, GOP : M=1, N=25
    Codec ID : V_MPEG4/ISO/AVC
    Duration : 1 h 48 min
    Bit rate mode : Constant
    Bit rate : 4 500 kb/s
    Width : 1 920 pixels
    Height : 800 pixels
    Display aspect ratio : 2.40:1
    Frame rate mode : Constant
    Frame rate : 29.970 (30000/1001) FPS
    Color space : YUV
    Chroma subsampling : 4:2:0
    Bit depth : 8 bits
    Scan type : Progressive
    Bits/(Pixel*Frame) : 0.098
    Stream size : 3.41 GiB (82%)
    Title : The.Current.War.Director's.Cut.2017.1080p.BluRay.T HR_©Gold Cup™
    Language : English
    Default : Yes
    Forced : No

    Audio #1
    ID : 2
    Format : AC-3
    Format/Info : Audio Coding 3
    Commercial name : Dolby Digital
    Codec ID : A_AC3
    Duration : 1 h 48 min
    Bit rate mode : Constant
    Bit rate : 320 kb/s
    Channel(s) : 2 channels
    Channel layout : L R
    Sampling rate : 44.1 kHz
    Frame rate : 28.711 FPS (1536 SPF)
    Compression mode : Lossy
    Stream size : 249 MiB (6%)
    Title : 2.0 AC3 THR 320K 248M_©Gold Cup™
    Language : Thai
    Service kind : Complete Main
    Default : Yes
    Forced : No

    Audio #2
    ID : 3
    Format : AC-3
    Format/Info : Audio Coding 3
    Commercial name : Dolby Digital
    Codec ID : A_AC3
    Duration : 1 h 48 min
    Bit rate mode : Constant
    Bit rate : 640 kb/s
    Channel(s) : 6 channels
    Channel layout : L R C LFE Ls Rs
    Sampling rate : 44.1 kHz
    Frame rate : 28.711 FPS (1536 SPF)
    Compression mode : Lossy
    Stream size : 497 MiB (12%)
    Title : 5.1 AC3 Eng 640K 497M
    Language : English
    Service kind : Complete Main
    Default : No
    Forced : No

    Text
    ID : 4
    Format : PGS
    Muxing mode : zlib
    Codec ID : S_HDMV/PGS
    Codec ID/Info : Picture based subtitle format used on BDs/HD-DVDs
    Duration : 1 h 37 min
    Bit rate : 36.4 kb/s
    Count of elements : 2486
    Stream size : 25.5 MiB (1%)
    Title : PGS_©Gold Cup™
    Language : English
    Default : Yes
    Forced : No





    Download: cornfile
    http://cornfile.com/cjwo72izjtln
    Download: mekafile
    meka ѾѺ ˹ѧ M

  2. The Following 2 Users Say Thank You to Duckload.us For This Useful Post:

    Tatum03 (11-06-2019), Wesker_TOT (11-06-2019)

  3. #2
    Senior Member
    Join Date
    Dec 2013
    Posts
    1,819
    Thanks
    3,757
    Thanked 0 Times in 0 Posts
    ͺسѺ...

  4. #3
    Senior Member
    Join Date
    Oct 2013
    Location
    Thailand
    Posts
    1,164
    Thanks
    1,038
    Thanked 0 Times in 0 Posts
    ͺسҡ

  5. #4
    Senior Member
    Join Date
    Jun 2014
    Posts
    1,189
    Thanks
    0
    Thanked 0 Times in 0 Posts
    ͺسѺ

  6. #5
    Junior Member
    Join Date
    Sep 2015
    Posts
    4
    Thanks
    0
    Thanked 0 Times in 0 Posts
    filecondo ҤѺ

Thread Information

Users Browsing this Thread

There are currently 1 users browsing this thread. (0 members and 1 guests)

     

Posting Permissions

  • You may not post new threads
  • You may not post replies
  • You may not post attachments
  • You may not edit your posts