ͧ
Kyoko Okitegami is a private detective. She is known as the Forgetful Private Detective. When she wakes up in the morning, her memory is reset. Due to this, she rigidly adheres to a maintenance secret. No matter what case she has, she has to solve the case in a day. On her body, she has an important note that she must never forget. Even though Yakusuke Kakushidate has a crush on Kyoko Okitegami, he is alway mistaken as the culprit of a case by Kyoko Okitegami. No matter how close Yakusuke Kakushidate gets to Kyoko Okitegami, she totally forgets him by the next day.

Format : AVC
Format/Info : Advanced Video Codec
Format profile : [email protected]
Format settings : CABAC / 4 Ref Frames
Format settings, CABAC : Yes
Format settings, Reference : 4 frames
Format settings, GOP : M=1, N=90
Codec ID : avc1
Codec ID/Info : Advanced Video Coding
Duration : 57 min 24 s
Duration_FirstFrame : 46 ms
Bit rate : 2 705 kb/s
Width : 1 280 pixels
Height : 720 pixels
Display aspect ratio : 16:9
Frame rate mode : Constant
Frame rate : 30.000 FPS
Color space : YUV
Chroma subsampling : 4:2:0
Bit depth : 8 bits
Scan type : Progressive
Bits/(Pixel*Frame) : 0.098
Stream size : 1.08 GiB (91%)
Writing library : x264 core 152 r2851 ba24899
Encoding settings : cabac=1 / ref=4 / deblock=1:2:2 / analyse=0x3:0x113 / me=hex / subme=2 / psy=1 / psy_rd=1.00:0.00 / mixed_ref=1 / me_range=16 / chroma_me=1 / trellis=0 / 8x8dct=1 / cqm=0 / deadzone=21,11 / fast_pskip=1 / chroma_qp_offset=0 / threads=22 / lookahead_threads=5 / sliced_threads=0 / nr=0 / decimate=1 / interlaced=0 / bluray_compat=0 / constrained_intra=0 / bframes=0 / weightp=2 / keyint=90 / keyint_min=9 / scenecut=0 / intra_refresh=0 / rc_lookahead=40 / rc=abr / mbtree=1 / bitrate=2705 / ratetol=1.0 / qcomp=0.60 / qpmin=10 / qpmax=51 / qpstep=4 / ip_ratio=0.91 / aq=1:1.00
Tagged date : UTC 2018-06-20 19:09:22
Codec configuration box : avcC

Audio
ID : 2
Format : AAC LC
Format/Info : Advanced Audio Codec Low Complexity
Codec ID : mp4a-40-2
Duration : 57 min 24 s
Duration_LastFrame : -14 ms
Bit rate mode : Constant
Bit rate : 256 kb/s
Channel(s) : 2 channels
Channel layout : L R
Sampling rate : 44.1 kHz
Frame rate : 43.066 FPS (1024 SPF)
Compression mode : Lossy
Stream size : 105 MiB (9%)
Default : Yes
Alternate group : 1
Tagged date : UTC 2018-06-20 19:09:22



1
http://www.filecondo.com/dl.php?f=c5f2bb1IrYZi
2
http://www.filecondo.com/dl.php?f=Cccae21IrZ1b
3
http://www.filecondo.com/dl.php?f=6a77cb1IrZ2a
4
http://www.filecondo.com/dl.php?f=98108a1IrZ37
5
http://www.filecondo.com/dl.php?f=j0d6721IrZ46
6
http://www.filecondo.com/dl.php?f=652efd1IrZ53
7
http://www.filecondo.com/dl.php?f=I410611IrZ61
8
http://www.filecondo.com/dl.php?f=Ae4dc91IrZ6Z
9
http://www.filecondo.com/dl.php?f=F12ec51IrZ7Y
10
http://www.filecondo.com/dl.php?f=tb8e441IrZ0d