+ Reply to Thread
Results 1 to 9 of 9
  1. #1
    Administrators Duckload.us's Avatar
    Join Date
    Dec 2010
    Posts
    107,802
    Thanks
    7
    Thanked 112,657 Times in 52,124 Posts

    Cool [ฝรั่ง]-[* Apple TV+ *] See (2019) : สายตาแห่งอนาคต Season 1 EP.1-4 [เสียงอังกฤษ 5.1] [บรรยายไทย + อังกฤษ] [ซับไทย Master From Apple TV Plus + ซับ PGS คมชัด]-WEB-DL.H.264.1080p. [Hi-def rip from Master]-[Soundtrack บรรยายไทย]



    SEE สายตาแห่งอนาคต คือซีรีส์ฟอร์มยักษ์แนวแอ็กชั่นดรามาไซไฟที่เป็น Original Series ลงบน Apple TV+ ที่จะเปิดตัวในวันที่ 1 พฤศจิกายน 2019 นี้ เขียนบทโดย Steven Knight ผลงานเด่นที่ทุกคนน่าจะรู้จักกันดีก็คือ Peaky Blinders และได้ผู้กำกับ The Hunger Games มากำกับอย่างคุณ Francis Lawrence

    ซีรีส์ฟอร์มยักษ์ จากการทุ่มทุนสร้างของ Apple TV+ ทุนสร้างต่อตอน (Episode) มากถึง 15 ล้านเหรียญ เมื่อเทียบกับซีรีส์ชื่อดัง Game of Thrones ก็ใช้งบประมาณระดับเดียวกันนี้


    เรื่องย่อของ SEE สายตาแห่งอนาคต

    SEE เป็นเรื่องราวในอนาคตที่เผ่าพันธ์มนุษย์ได้สูญเสียกา รมองเห็นไปด้วยเหตุอันใดไม่ทราบได้ (เกิดมาก็ตาบอดทุกคน) ทำให้มนุษย์ต้องหาทางปรับตัว รวมกลุ่มกันเป็นชนเผ่า ช่วยกันล่าสัตว์ เพื่อหาทางอยู่รอด

    แต่วันหนึ่ง ภรรยาของ Baba Voss นักรบประจำเผ่า รับบทโดย Jason Momoa (Aquaman, Game of Throne) ได้คลอดลูกแฝดที่มองเห็นสิ่งต่าง ๆ ได้ตั้งแต่เกิด (ตาไม่บอด)

    ข่าวของเด็กแฝดที่เกิดมามองเห็นในโลกของคนตาบอด ได้แพร่สะพัดไปถึงหูของราชินีผู้ชั่วร้ายและต้องการต ัวเด็กมาไว้ในครอบครอง Baba Voss จึงต้องพึ่งสัญชาตญาณ ทำหน้าที่ปกป้องลูกของพวกเขา หารือและประชุมกับเผ่าต่าง ๆ เพื่อจะโค่นบัลลังค์ของราชินีลง ก่อนที่ราชินีจะจับตัวเด็กไปได้


    Code:
    Format                                   : Matroska
    Format version                           : Version 4
    File size                                : 2.00 GiB
    Duration                                 : 57 min 30 s
    Overall bit rate                         : 4 966 kb/s
    Movie name                               : See.S01E01.Godflame.1080p.WEB-DL.DD5.1.H.264_SkiesIT
    Encoded date                             : UTC 2019-11-03 15:37:45
    Writing application                      : mkvmerge v38.0.0 ('The Silent Type') 64-bit
    Writing library                          : libebml v1.3.9 + libmatroska v1.5.2
    
    Video
    ID                                       : 1
    Format                                   : AVC
    Format/Info                              : Advanced Video Codec
    Format profile                           : [email protected]
    Format settings                          : CABAC / 4 Ref Frames
    Format settings, CABAC                   : Yes
    Format settings, Reference frames        : 4 frames
    Codec ID                                 : V_MPEG4/ISO/AVC
    Duration                                 : 57 min 30 s
    Bit rate                                 : 4 500 kb/s
    Width                                    : 1 920 pixels
    Height                                   : 910 pixels
    Display aspect ratio                     : 2.110
    Frame rate mode                          : Variable
    Frame rate                               : 23.976 FPS
    Color space                              : YUV
    Chroma subsampling                       : 4:2:0
    Bit depth                                : 8 bits
    Scan type                                : Progressive
    Bits/(Pixel*Frame)                       : 0.107
    Stream size                              : 1.81 GiB (91%)
    Title                                    : See.S01E01.Godflame.1080p.WEB-DL.DD5.1.H.264_SkiesIT
    Writing library                          : x264 core 148
    Encoding settings                        : cabac=1 / ref=3 / deblock=1:0:0 / analyse=0x3:0x113 / me=hex / subme=7 / psy=1 / psy_rd=1.00:0.00 / mixed_ref=1 / me_range=16 / chroma_me=1 / trellis=1 / 8x8dct=1 / cqm=0 / deadzone=21,11 / fast_pskip=1 / chroma_qp_offset=-2 / threads=9 / lookahead_threads=1 / sliced_threads=0 / nr=0 / decimate=1 / interlaced=0 / bluray_compat=0 / constrained_intra=0 / bframes=3 / b_pyramid=2 / b_adapt=1 / b_bias=0 / direct=1 / weightb=1 / open_gop=0 / weightp=2 / keyint=250 / keyint_min=23 / scenecut=40 / intra_refresh=0 / rc_lookahead=40 / rc=2pass / mbtree=1 / bitrate=4500 / ratetol=1.0 / qcomp=0.60 / qpmin=0 / qpmax=69 / qpstep=4 / cplxblur=20.0 / qblur=0.5 / ip_ratio=1.40 / aq=1:1.00
    Language                                 : English
    Default                                  : Yes
    Forced                                   : No
    
    Audio
    ID                                       : 2
    Format                                   : AC-3
    Format/Info                              : Audio Coding 3
    Commercial name                          : Dolby Digital
    Codec ID                                 : A_AC3
    Duration                                 : 57 min 30 s
    Bit rate mode                            : Constant
    Bit rate                                 : 384 kb/s
    Channel(s)                               : 6 channels
    Channel layout                           : L R C LFE Ls Rs
    Sampling rate                            : 48.0 kHz
    Frame rate                               : 31.250 FPS (1536 SPF)
    Compression mode                         : Lossy
    Stream size                              : 158 MiB (8%)
    Language                                 : English
    Service kind                             : Complete Main
    Default                                  : Yes
    Forced                                   : No
    
    Text #1
    ID                                       : 3
    Format                                   : UTF-8
    Codec ID                                 : S_TEXT/UTF8
    Codec ID/Info                            : UTF-8 Plain Text
    Duration                                 : 55 min 4 s
    Bit rate                                 : 91 b/s
    Count of elements                        : 494
    Stream size                              : 37.0 KiB (0%)
    Title                                    : Thai SRT From Apple TV Plus
    Language                                 : Thai
    Default                                  : Yes
    Forced                                   : No
    
    Text #2
    ID                                       : 4
    Format                                   : VobSub
    Muxing mode                              : zlib
    Codec ID                                 : S_VOBSUB
    Codec ID/Info                            : Picture based subtitle format used on DVDs
    Duration                                 : 54 min 54 s
    Bit rate                                 : 9 089 b/s
    Count of elements                        : 494
    Stream size                              : 3.57 MiB (0%)
    Title                                    : Thai 1080p
    Language                                 : Thai
    Default                                  : No
    Forced                                   : No
    
    Text #3
    ID                                       : 5
    Format                                   : VobSub
    Muxing mode                              : zlib
    Codec ID                                 : S_VOBSUB
    Codec ID/Info                            : Picture based subtitle format used on DVDs
    Duration                                 : 54 min 54 s
    Bit rate                                 : 9 098 b/s
    Count of elements                        : 494
    Stream size                              : 3.57 MiB (0%)
    Title                                    : Thai 1080p Yellow
    Language                                 : Thai
    Default                                  : No
    Forced                                   : No
    
    Text #4
    ID                                       : 6
    Format                                   : VobSub
    Muxing mode                              : zlib
    Codec ID                                 : S_VOBSUB
    Codec ID/Info                            : Picture based subtitle format used on DVDs
    Duration                                 : 54 min 54 s
    Bit rate                                 : 10.7 kb/s
    Count of elements                        : 494
    Stream size                              : 4.22 MiB (0%)
    Title                                    : Thai 1080p [BIG]
    Language                                 : Thai
    Default                                  : No
    Forced                                   : No
    
    Text #5
    ID                                       : 7
    Format                                   : PGS
    Muxing mode                              : zlib
    Codec ID                                 : S_HDMV/PGS
    Codec ID/Info                            : Picture based subtitle format used on BDs/HD-DVDs
    Duration                                 : 54 min 54 s
    Bit rate                                 : 38.7 kb/s
    Count of elements                        : 988
    Stream size                              : 15.2 MiB (1%)
    Title                                    : Thai PGS
    Language                                 : Thai
    Default                                  : No
    Forced                                   : No
    
    Text #6
    ID                                       : 8
    Format                                   : PGS
    Muxing mode                              : zlib
    Codec ID                                 : S_HDMV/PGS
    Codec ID/Info                            : Picture based subtitle format used on BDs/HD-DVDs
    Duration                                 : 54 min 54 s
    Bit rate                                 : 38.7 kb/s
    Count of elements                        : 988
    Stream size                              : 15.2 MiB (1%)
    Title                                    : Thai PGS Yellow
    Language                                 : Thai
    Default                                  : No
    Forced                                   : No
    
    Text #7
    ID                                       : 9
    Format                                   : PGS
    Muxing mode                              : zlib
    Codec ID                                 : S_HDMV/PGS
    Codec ID/Info                            : Picture based subtitle format used on BDs/HD-DVDs
    Duration                                 : 54 min 54 s
    Bit rate                                 : 47.2 kb/s
    Count of elements                        : 988
    Stream size                              : 18.5 MiB (1%)
    Title                                    : Thai PGS [BIG]
    Language                                 : Thai
    Default                                  : No
    Forced                                   : No
    
    Text #8
    ID                                       : 10
    Format                                   : PGS
    Muxing mode                              : zlib
    Codec ID                                 : S_HDMV/PGS
    Codec ID/Info                            : Picture based subtitle format used on BDs/HD-DVDs
    Duration                                 : 55 min 54 s
    Bit rate                                 : 40.0 kb/s
    Count of elements                        : 1202
    Stream size                              : 16.0 MiB (1%)
    Title                                    : English PGS
    Language                                 : English
    Default                                  : No
    Forced                                   : No














    Download: filecondo
    1 http://www.filecondo.com/dl.php?f=6083701IrZ94
    2 http://www.filecondo.com/dl.php?f=e02fcb1IrZa2
    3 http://www.filecondo.com/dl.php?f=68d6901IrZb0
    4 http://www.filecondo.com/dl.php?f=ea17d31ItmN1
    4 http://www.filecondo.com/dl.php?f=9a84951ItmMf

    Download: cornfile
    See.S01E01.Godflame.1080p.WEB-DL.DD5.1.H.264_SkiesIT.mkv - 2.0 GB
    See.S01E02.Message.in.a.Bottle.1080p.WEB-DL.DD5.1.H.264_SkiesIT.mkv - 2.0 GB
    See.S01E03.Fresh.Blood.1080p.WEB-DL.DD5.1.H.264_SkiesIT.mkv - 2.0 GB
    See.S01E04.1080p.WEB.H264-.mkv - 3.9 GB
    See.S01E04.The.River.1080p.WEB-DL.DD5.1.H264_SkiesIT.mkv - 2.1 GB

    Download: mekafile
    1 http://www.mekafile.com/dl.php?f=Lm63fec1c8Sk
    2 http://www.mekafile.com/dl.php?f=bm1a1ac1c95S
    3 http://www.mekafile.com/dl.php?f=1I8aaac1c8Zd
    4 http://www.mekafile.com/dl.php?f=X814f3c1jwsS
    4 http://www.mekafile.com/dl.php?f=zY9231c1jwAM

  2. The Following 5 Users Say Thank You to Duckload.us For This Useful Post:

    amorn wichian (Yesterday), jangska (11-07-2019), sztttttt (11-07-2019), Tatum03 (11-06-2019), Wesker_TOT (11-06-2019)

  3. #2
    Senior Member
    Join Date
    Dec 2013
    Posts
    1,819
    Thanks
    3,757
    Thanked 0 Times in 0 Posts
    ขอบคุณครับ...

  4. #3
    Senior Member
    Join Date
    Oct 2013
    Location
    Thailand
    Posts
    1,164
    Thanks
    1,038
    Thanked 0 Times in 0 Posts
    ขอบคุณมาก

  5. #4
    Senior Member
    Join Date
    Jul 2012
    Posts
    6,198
    Thanks
    0
    Thanked 0 Times in 0 Posts
    ขอบคุณมากจ้า

  6. #5
    Member
    Join Date
    May 2018
    Posts
    90
    Thanks
    0
    Thanked 1 Time in 1 Post
    มัน 8 ตอนจบไม่ใช่หรอครับ ทำไมมีแค่ 3

  7. #6
    Junior Member
    Join Date
    Mar 2018
    Posts
    14
    Thanks
    22
    Thanked 0 Times in 0 Posts
    Quote Originally Posted by gustin63 View Post
    มัน 8 ตอนจบไม่ใช่หรอครับ ทำไมมีแค่ 3
    ซีรี่ย์เพิ่งจะมาใหม่ครับ ฉายอาทิตย์ละตอน

  8. #7
    Senior Member
    Join Date
    Jun 2014
    Posts
    1,189
    Thanks
    0
    Thanked 0 Times in 0 Posts
    ขอบคุณครับ

  9. #8
    Member
    Join Date
    May 2018
    Posts
    90
    Thanks
    0
    Thanked 1 Time in 1 Post
    แต่นี่ห้อง "หนังชุดซีรีย์ที่จบแล้ว [ฝรั่ง]"ไงครับ
    ถ้ายังไม่จบน่าจะโพสอีกห้องนึง
    ครบ8ตอนแล้วถึงมาลงห้องนี้ได้ ^^

  10. #9
    Member
    Join Date
    May 2018
    Posts
    90
    Thanks
    0
    Thanked 1 Time in 1 Post
    Quote Originally Posted by sztttttt View Post
    ซีรี่ย์เพิ่งจะมาใหม่ครับ ฉายอาทิตย์ละตอน
    แต่นี่ห้อง "หนังชุดซีรีย์ที่จบแล้ว [ฝรั่ง]"ไงครับ
    ถ้ายังไม่จบน่าจะโพสอีกห้องนึง
    ครบ8ตอนแล้วถึงมาลงห้องนี้ได้ ^^

+ Reply to Thread

Thread Information

Users Browsing this Thread

There are currently 1 users browsing this thread. (0 members and 1 guests)

     

Posting Permissions

  • You may not post new threads
  • You may not post replies
  • You may not post attachments
  • You may not edit your posts