+ Reply to Thread
Results 1 to 3 of 3
  1. #1
    Administrators Duckload.us's Avatar
    Join Date
    Dec 2010
    Posts
    107,802
    Thanks
    7
    Thanked 112,657 Times in 52,124 Posts

    Question [เกาหลี]-[Netflix] Tune in for Love (2019) คลื่นรักสื่อใจ [# พากย์ไทย+เกาหลี 5.1 #] - [! บรรยายไทย+อังกฤษ PGS คมชัด !] - WEB-DL.H.264.1080p. [Master from Netflix]

    '

    นักศึกษาสาวได้พบกับหนุ่มวัยรุ่นพูดน้อยครั้งแรกที่ร ้านเบเกอรี่ยุคปี 90
    หลายปีหลังจากนั้นทั้งคู่ยังคงเฝ้าตามหากัน แม้โชคชะตาคอยพรากจากกัน

    Code:
    Format                                   : Matroska
    Format version                           : Version 4
    File size                                : 2.01 GiB
    Duration                                 : 2 h 2 min
    Overall bit rate                         : 2 336 kb/s
    Encoded date                             : UTC 2019-11-05 11:58:06
    Writing application                      : mkvmerge v39.0.0 ('In The Waiting Line') 64-bit
    Writing library                          : libebml v1.3.9 + libmatroska v1.5.2
    
    Video
    ID                                       : 1
    Format                                   : AVC
    Format/Info                              : Advanced Video Codec
    Format profile                           : [email protected]
    Format settings                          : CABAC / 3 Ref Frames
    Format settings, CABAC                   : Yes
    Format settings, Reference frames        : 3 frames
    Codec ID                                 : V_MPEG4/ISO/AVC
    Duration                                 : 2 h 2 min
    Bit rate                                 : 1 043 kb/s
    Width                                    : 1 920 pixels
    Height                                   : 1 080 pixels
    Display aspect ratio                     : 16:9
    Frame rate mode                          : Constant
    Frame rate                               : 23.976 (24000/1001) FPS
    Color space                              : YUV
    Chroma subsampling                       : 4:2:0
    Bit depth                                : 8 bits
    Scan type                                : Progressive
    Bits/(Pixel*Frame)                       : 0.021
    Stream size                              : 917 MiB (45%)
    Default                                  : Yes
    Forced                                   : No
    
    Audio #1
    ID                                       : 2
    Format                                   : E-AC-3
    Format/Info                              : Enhanced AC-3
    Commercial name                          : Dolby Digital Plus
    Codec ID                                 : A_EAC3
    Duration                                 : 2 h 2 min
    Bit rate mode                            : Constant
    Bit rate                                 : 640 kb/s
    Channel(s)                               : 6 channels
    Channel layout                           : L R C LFE Ls Rs
    Sampling rate                            : 48.0 kHz
    Frame rate                               : 31.250 FPS (1536 SPF)
    Compression mode                         : Lossy
    Stream size                              : 563 MiB (27%)
    Language                                 : Korean
    Service kind                             : Complete Main
    Default                                  : Yes
    Forced                                   : No
    
    Audio #2
    ID                                       : 3
    Format                                   : E-AC-3
    Format/Info                              : Enhanced AC-3
    Commercial name                          : Dolby Digital Plus
    Codec ID                                 : A_EAC3
    Duration                                 : 2 h 2 min
    Bit rate mode                            : Constant
    Bit rate                                 : 640 kb/s
    Channel(s)                               : 6 channels
    Channel layout                           : L R C LFE Ls Rs
    Sampling rate                            : 48.0 kHz
    Frame rate                               : 31.250 FPS (1536 SPF)
    Compression mode                         : Lossy
    Stream size                              : 563 MiB (27%)
    Language                                 : Thai
    Service kind                             : Complete Main
    Default                                  : No
    Forced                                   : No
    
    Text #1
    ID                                       : 4
    Format                                   : PGS
    Muxing mode                              : zlib
    Codec ID                                 : S_HDMV/PGS
    Codec ID/Info                            : Picture based subtitle format used on BDs/HD-DVDs
    Duration                                 : 2 h 2 min
    Bit rate                                 : 26.0 kb/s
    Count of elements                        : 3744
    Stream size                              : 22.7 MiB (1%)
    Language                                 : Thai
    Default                                  : Yes
    Forced                                   : No
    
    Text #2
    ID                                       : 5
    Format                                   : UTF-8
    Codec ID                                 : S_TEXT/UTF8
    Codec ID/Info                            : UTF-8 Plain Text
    Duration                                 : 2 h 2 min
    Bit rate                                 : 46 b/s
    Count of elements                        : 1361
    Stream size                              : 42.1 KiB (0%)
    Language                                 : English
    Default                                  : No
    Forced                                   : No






    [บรรยายไทย]
    4.3 GB
    http://cornfile.com/60aiqb1m1amc
    http://www.mekafile.com/dl.php?f=513e77c1c7tQ

    พากย์ไทย+[บรรยายไทย]
    2.0 GB
    http://cornfile.com/smijjb45d6x2
    http://www.mekafile.com/dl.php?f=2Ue132c1c7N2

  2. The Following User Says Thank You to Duckload.us For This Useful Post:

    Wesker_TOT (11-06-2019)

  3. #2
    Senior Member
    Join Date
    Dec 2013
    Posts
    1,819
    Thanks
    3,757
    Thanked 0 Times in 0 Posts
    ขอบคุณครับ...

  4. #3
    Senior Member
    Join Date
    Jun 2014
    Posts
    1,189
    Thanks
    0
    Thanked 0 Times in 0 Posts
    ขอบคุณครับ

+ Reply to Thread

Thread Information

Users Browsing this Thread

There are currently 1 users browsing this thread. (0 members and 1 guests)

     

Posting Permissions

  • You may not post new threads
  • You may not post replies
  • You may not post attachments
  • You may not edit your posts