+ Reply to Thread
Results 1 to 4 of 4
  1. #1
    Administrators Duckload.us's Avatar
    Join Date
    Dec 2010
    Posts
    107,802
    Thanks
    7
    Thanked 112,657 Times in 52,124 Posts

    Question (..Ҿ HQ.SUB:ENG+ҡç)-DORA AND THE LOST CITY OF GOLD (2019) ͧͧ-[WEB-RIP1080p][Sound:Eng AC3 5.1+Thai Rong AC3 2.0][SUB:Eng.PGS]



    (ԫ ) ԺԵ㹻ҵԴ ǹ¼˹ҷԵѺ ( ྐྵ)Ѻ ( ͧ)ѡǨ١ѧҧʧ з ͧԵͧ Ѻ仾 (ਿ )١١ͧʹԷ¹仨ҡѧ ʤ Т价ȹ֡ҷԾԸѳ ͹١ѡѵѡҵѧ ٷͧ͢ҴõԴ ҹ (չ ഹ) Ѻ ù ( ) ͹ͧ駤ͧӷءҧ͵Ҿ ѡǨµ ͹¨Ф鹾 Ҿҵ ͧͧӢͧԹЩѵ仨ҡѹ

    Format : Matroska
    Format version : Version 4
    File size : 3.94 GiB
    Duration : 1 h 42 min
    Overall bit rate : 5 501 kb/s
    Movie name : Dora.And.The.Lost.City.Of.Gold.2019.1080p.WEBRip.x 264-THR_Gold Cup™
    Video
    ID : 1
    Format : AVC
    Format/Info : Advanced Video Codec
    Format profile : [email protected]
    Format settings : CABAC / 1 Ref Frames
    Format settings, CABAC : Yes
    Format settings, Reference : 1 frame
    Format settings, GOP : M=1, N=25
    Codec ID : V_MPEG4/ISO/AVC
    Duration : 1 h 42 min
    Bit rate mode : Constant
    Bit rate : 4 500 kb/s
    Width : 1 920 pixels
    Height : 1 072 pixels
    Display aspect ratio : 16:9
    Frame rate mode : Constant
    Frame rate : 29.970 (30000/1001) FPS
    Color space : YUV
    Chroma subsampling : 4:2:0
    Bit depth : 8 bits
    Scan type : Progressive
    Bits/(Pixel*Frame) : 0.073
    Stream size : 3.22 GiB (82%)
    Title : Dora.And.The.Lost.City.Of.Gold.2019.1080p.WEBRip.x 264-THR_Gold Cup™
    Language : English
    Default : Yes
    Forced : No

    Audio #1
    ID : 2
    Format : AC-3
    Format/Info : Audio Coding 3
    Commercial name : Dolby Digital
    Codec ID : A_AC3
    Duration : 1 h 42 min
    Bit rate mode : Constant
    Bit rate : 320 kb/s
    Channel(s) : 2 channels
    Channel layout : L R
    Sampling rate : 44.1 kHz
    Frame rate : 28.711 FPS (1536 SPF)
    Compression mode : Lossy
    Stream size : 234 MiB (6%)
    Title : 2.0 AC3 Thr 320k 234m
    Language : Thai
    Service kind : Complete Main
    Default : Yes
    Forced : No

    Audio #2
    ID : 3
    Format : AC-3
    Format/Info : Audio Coding 3
    Commercial name : Dolby Digital
    Codec ID : A_AC3
    Duration : 1 h 42 min
    Bit rate mode : Constant
    Bit rate : 640 kb/s
    Channel(s) : 6 channels
    Channel layout : L R C LFE Ls Rs
    Sampling rate : 44.1 kHz
    Frame rate : 28.711 FPS (1536 SPF)
    Compression mode : Lossy
    Stream size : 469 MiB (12%)
    Title : 5.1 AC3 En 640k 469m
    Language : English
    Service kind : Complete Main
    Default : No
    Forced : No

    Text #1
    ID : 4
    Format : PGS
    Muxing mode : zlib
    Codec ID : S_HDMV/PGS
    Codec ID/Info : Picture based subtitle format used on BDs/HD-DVDs
    Duration : 1 h 41 min
    Bit rate : 35.5 kb/s
    Count of elements : 3388
    Stream size : 25.9 MiB (1%)
    Title : En-Hearing Impaired=麡ͧҧ§-PNG_Gold Cup™
    Language : English
    Default : Yes
    Forced : No

    Text #2
    ID : 5
    Format : PGS
    Muxing mode : zlib
    Codec ID : S_HDMV/PGS
    Codec ID/Info : Picture based subtitle format used on BDs/HD-DVDs
    Duration : 1 h 38 min
    Bit rate : 28.4 kb/s
    Count of elements : 2948
    Stream size : 20.0 MiB (0%)
    Title : En-PGS_Gold Cup™
    Language : English
    Default : No
    Forced : No






    Download: cornfile
    http://cornfile.com/k4ki9s9cj8a0
    Download: mekafile
    http://www.mekafile.com/dl.php?f=Pn4e08c1chDh

  2. The Following 5 Users Say Thank You to Duckload.us For This Useful Post:

    agg001 (11-06-2019), load1part (11-10-2019), Tatum03 (11-06-2019), Tellmon (11-07-2019), Wesker_TOT (11-06-2019)

  3. #2
    Senior Member
    Join Date
    Dec 2013
    Posts
    1,819
    Thanks
    3,757
    Thanked 0 Times in 0 Posts
    ͺسѺ...

  4. #3
    Senior Member
    Join Date
    Oct 2013
    Location
    Thailand
    Posts
    1,164
    Thanks
    1,038
    Thanked 0 Times in 0 Posts
    ͺسҡ

  5. #4
    Senior Member
    Join Date
    Jun 2014
    Posts
    1,189
    Thanks
    0
    Thanked 0 Times in 0 Posts
    ͺسѺ

Thread Information

Users Browsing this Thread

There are currently 1 users browsing this thread. (0 members and 1 guests)

     

Posting Permissions

  • You may not post new threads
  • You may not post replies
  • You may not post attachments
  • You may not edit your posts