+ Reply to Thread
Results 1 to 8 of 8
  1. #1
    Administrators Duckload.us's Avatar
    Join Date
    Dec 2010
    Posts
    103,694
    Thanks
    9
    Thanked 106,632 Times in 50,445 Posts

    Lightbulb []-[Hi-Def] Cinderella Man - ¡ꡡꡡФس¾ԡͤ (16 Ep + OST) 720p-AREA11 [Ѻ RU-Indy] 2Audio ͹ѧ / ع SNSD -HDTV.H.264.720p. [From TV]-[ҡ]



    Cinderella Man - ¡ꡡꡡФس¾ԡͤ

    ˹ѧ : Cinderella Man / ¡ꡡꡡФس¾ԡͤ
    ѡʴ : Kwon Sang Woo , Im Yoon Ah
    ӡѺ : Yoo Jung Joon
    ӹǹ͹ : 16
    : Romance
    Ե : N/A
    Written By : Jo Yoon Young
    : 2009



    ͧ (Synopsis) :

    ͧǡѺͧῪ Dongdaemun ͧǢͧ蹷ѹ ſͧǡ ºͧ (ը͹ / Lee Jun Hee) ¹ǡѺ¤˹ (ᴫѹ / Oh Dae San) ͹Ѻ ᵡҧҧͧ ˹ ա˹觨 ˭ԧǷժ ͨԹ (Seo Yeo Jin) 觡ѧ¹ç¹Ὺ蹴䫹㹻 ͧԹҧѺ ѧҡԵͧ͵ͧ¹ ;ͧ͢ªԵŧ

    ´ѡʴ :

    * ͹ѧ (Kwon Sang Woo) Ѻ ᴫѹ (Oh Dae San) / ը͹ (Lee Jun Hee)
    * ٹ (Im Yoon Ah) Ѻ ͨԹ (Seo Yeo Jin)
    * ѹֹͧ (Han Eun Jung)Ѻ ҧֹ (Jang Se Eun)
    * ͧҧ (Song Chang Ui)Ѻ Թ (Lee Jae Min)
    * Թ (Kim Min Hee)Ѻ عا (Lee Hyun Jung)
    * اΫѹ (Jung Hye Sun)Ѻ ѧ (Kang Joo Ok)
    * դاԹ (Lee Kyung Jin)Ѻ عֹ (Yoon Eun Hee)
    * (Yoo Hye Ri)Ѻ ͫѹѧ (Oh Sun Young)
    * اǫ (Jung Kyu Soo)Ѻ ԹԪ (Shin Ki Chul)
    * ǫѧؤ (Ryu Sang Wook)Ѻ 줫֧ (Park Seung Jae)
    * § (Lee Yeon Doo)Ѻ ѧعا (Kang Yoon Jung)
    * ѧѾ (Kang Dong Yup)Ѻ ͧع (Kim Dong Hyun)
    * ҧا (Jang Jung Hee)Ѻ իع (Lee Soon)

    Ahn Suk Hwan
    Jung Woo
    Lee Byung Joon
    Hwang Eun Jung
    Kwon Tae Won




    General
    Unique ID : 221186033057314627297985045202918603676 (0xA666E164284BBDF7AF3F31BF768E7B9C)
    Complete name : E:Cinderella Man 16Ep 720p-AREA11 [RU-Indy] 2AudioCinderella.Man.E01.720p.HDTV.x264-AREA11.mkv
    Format : Matroska
    Format version : Version 2
    File size : 1.55 GiB
    Duration : 1h 4mn
    Overall bit rate : 3 451 Kbps
    Encoded date : UTC 2012-08-24 01:31:25
    Writing application : mkvmerge v3.4.0 ( Rapunzel ) built on May 15 2010 09:38:20
    Writing library : libebml v0.8.0 + libmatroska v0.9.0

    Video
    ID : 1
    Format : AVC
    Format/Info : Advanced Video Codec
    Format profile : [email protected]
    Format settings , CABAC : Yes
    Format settings , ReFrames : 5 frames
    Codec ID : V_MPEG4/ISO/AVC
    Duration : 1h 4mn
    Bit rate : 3 063 Kbps
    Width : 1 280 pixels
    Height : 720 pixels
    Display aspect ratio : 16:9
    Frame rate : 29.970 fps
    Color space : YUV
    Chroma subsampling : 4:2:0
    Bit depth : 8 bits
    Scan type : Progressive
    Bits/(Pixel*Frame) : 0.111
    Stream size : 1.34 GiB (87%)
    Title : Cinderella.Man.E01.720p.HDTV.x264-AREA11
    Writing library : x264 core 88 r1471 1144615
    Encoding settings : cabac=1 / ref=5 / deblock=1:-2:-2 / analyse=0x3:0x113 / me=umh / subme=7 / psy=1 / psy_rd=1.00:0.00 / mixed_ref=1 / me_range=16 / chroma_me=1 / trellis=2 / 8x8dct=1 / cqm=0 / deadzone=21 , 11 / fast_pskip=0 / chroma_qp_offset=-2 / threads=6 / sliced_threads=0 / nr=0 / decimate=1 / mbaff=0 / constrained_intra=0 / bframes=3 / b_pyramid=2 / b_adapt=2 / b_bias=0 / direct=3 / wpredb=1 / wpredp=2 / keyint=250 / keyint_min=25 / scenecut=40 / intra_refresh=0 / rc_lookahead=40 / rc=2pass / mbtree=1 / bitrate=3063 / ratetol=1.0 / qcomp=0.60 / qpmin=10 / qpmax=51 / qpstep=4 / cplxblur=20.0 / qblur=0.5 / vbv_maxrate=50000 / vbv_bufsize=50000 / ip_ratio=1.40 / aq=1:1.00
    Language : Korean

    Audio #1
    ID : 2
    Format : AC-3
    Format/Info : Audio Coding 3
    Mode extension : CM (complete main)
    Codec ID : A_AC3
    Duration : 1h 4mn
    Bit rate mode : Constant
    Bit rate : 192 Kbps
    Channel(s) : 2 channels
    Channel positions : Front: L R
    Sampling rate : 48.0 KHz
    Bit depth : 16 bits
    Compression mode : Lossy
    Stream size : 88.0 MiB (6%)
    Title : Korean
    Language : Korean

    Audio #2
    ID : 3
    Format : AC-3
    Format/Info : Audio Coding 3
    Mode extension : CM (complete main)
    Codec ID : A_AC3
    Duration : 1h 4mn
    Bit rate mode : Constant
    Bit rate : 192 Kbps
    Channel(s) : 2 channels
    Channel positions : Front: L R
    Sampling rate : 48.0 KHz
    Bit depth : 16 bits
    Compression mode : Lossy
    Stream size : 88.0 MiB (6%)
    Title : Thai
    Language : Thai

    Text
    ID : 4
    Format : VobSub
    Muxing mode : zlib
    Codec ID : S_VOBSUB
    Codec ID/Info : The same subtitle format used on DVDs
    Title : Thai R U Indy s Sub
    Language : Thai


    -鹩Ѻ 720p AREA11
    -Ѻ R U indy ҡ ҹ Nologo
    -§ ҡTrue Vision ҡҹ Goatboy


    1
    http://www.filecondo.com/dl.php?f=83f7f51t87fi
    2
    http://www.filecondo.com/dl.php?f=z6dbae1t85ZL
    3
    http://www.filecondo.com/dl.php?f=s06e641t862C
    4
    http://www.filecondo.com/dl.php?f=5ed1f81t865u
    5
    http://www.filecondo.com/dl.php?f=n159941t868y
    6
    http://www.filecondo.com/dl.php?f=p5ab4c1t86bA
    7
    http://www.filecondo.com/dl.php?f=31a2ad1t86WW
    8
    http://www.filecondo.com/dl.php?f=s029501t86XX
    9
    http://www.filecondo.com/dl.php?f=9bdad71t86es
    10
    http://www.filecondo.com/dl.php?f=8fee101t86hx
    11
    http://www.filecondo.com/dl.php?f=Teb5cb1t86iV
    12
    http://www.filecondo.com/dl.php?f=t96a3f1t87h6
    13
    http://www.filecondo.com/dl.php?f=f9e9dc1t87jm
    14
    http://www.filecondo.com/dl.php?f=K706721t87ki
    15
    http://www.filecondo.com/dl.php?f=Be6ff21t86kG
    16
    http://www.filecondo.com/dl.php?f=1c3aaf1t86mw

  2. The Following 6 Users Say Thank You to Duckload.us For This Useful Post:

    beeo (11-29-2014), gigzy (10-11-2014), kit79 (10-16-2016), mutjarin2507 (11-16-2012), noi54 (12-14-2012), nuiduidui (10-08-2012)

  3. #2
    Senior Member
    Join Date
    Dec 2011
    Posts
    2,119
    Thanks
    0
    Thanked 0 Times in 0 Posts
    ͺسФ ^_^

  4. #3
    Junior Member
    Join Date
    Aug 2012
    Posts
    18
    Thanks
    5
    Thanked 0 Times in 0 Posts
    ͺسѺ

  5. #4
    Junior Member
    Join Date
    Sep 2012
    Posts
    15
    Thanks
    0
    Thanked 0 Times in 0 Posts
    ͺسҡѺ

  6. #5
    Junior Member
    Join Date
    May 2011
    Posts
    15
    Thanks
    0
    Thanked 0 Times in 0 Posts
    ͺسѺ

  7. #6
    Junior Member
    Join Date
    Feb 2013
    Posts
    2
    Thanks
    3
    Thanked 0 Times in 0 Posts
    ͺسҡ¹ФѺ

  8. #7
    Junior Member
    Join Date
    Sep 2014
    Posts
    1
    Thanks
    0
    Thanked 0 Times in 0 Posts
    ͺسҡѺ

  9. #8
    Member gigzy's Avatar
    Join Date
    Feb 2011
    Posts
    92
    Thanks
    422
    Thanked 0 Times in 0 Posts
    ͺسҡ
    ͺس觻ѹ ^^

Thread Information

Users Browsing this Thread

There are currently 1 users browsing this thread. (0 members and 1 guests)

     

Posting Permissions

  • You may not post new threads
  • You may not post replies
  • You may not post attachments
  • You may not edit your posts