+ Reply to Thread
Results 1 to 7 of 7
  1. #1
    Administrators Duckload.us's Avatar
    Join Date
    Dec 2010
    Posts
    107,002
    Thanks
    9
    Thanked 111,490 Times in 51,829 Posts

    Exclamation [ฝรั่ง]-[~CtHts นำเสนอ..ความมันส์นรกแตก~] Freddy vs Jason / ศึกวันนรกแตก [Remux.DTS.1080p.CtHts]-[Modified]-[เสียงอังกฤษ DTS+พากย์ไทย 5.1]-[บรรยายไทย+อังกฤษ] {เสียงซับไทย DVD Master+ซับไทยทำใหม่ คมชัดถึงใจ}





    Quote:

    ใน ที่สุด 2 นักฆ่าแห่งโลกภาพยนตร์ก็ได้มาเจอกันเสียที หลังจากจดๆ จ้องๆ มาตั้งแต่ปี 1987 จริงๆ แล้วเจ้าสองปีศาจนี้จะได้มาเจอกันใน Friday the 13th ภาค 7 แต่พอดีทาง Paramount เจ้าของเจสัน (ในขณะนั้น) กับ New Line เจ้าของเฟรดดี้เกิดไม่ลงรอยกัน สองปีศาจเลยไม่ได้เจอกันซะที พอมาช่วงกลางทศวรรษ 90 ก็มีคนเขียนบทหนังเรื่องนี้ แต่หนังก็ไม่มีความคืบหน้า จนถึงตอนนี้นี่แหละที่ฝันเป็นจริงซะที

    เรื่อง ของเรื่องคือ เฟรดดี้ ครูเกอร์ (Robert Englund) เขาถูกลืม คนทั้งถนนเอล์มได้เอายาฮิปโนซิล ที่มีฤทธิ์ทำให้หยุดฝันให้ลูกๆ กิน ลูกๆ เลยไม่ฝันและลืมเฟรดดี้ไปจนหมด ทีนี้เฟรดดี้เลยออกปฏิบัติการไม่ได้ เลยไปปลุกพี่เจสัน วอร์ฮีส์ (Ken Kirzinger) ให้มาสร้างความสะพรึงที่ถนนเอล์ม ให้ผู้ใหญ่นึกว่าเป็นฝีมือตน จะได้ทำให้ชื่อเสียงของตนกลับมาเข้าหูลูกหลานพวกเขาอ ีกครั้ง

    ทีนี้ พอทุกคนจำเฟรดดี้ได้ ก็เหมือนประตูที่ถูกเปิด เฟรดดี้ก็จะสามารถเข้าฝันทุกคนได้ จะได้ฆ่าๆๆๆ แต่ทว่า พี่เจสันก็มาเพื่อฆ่าเหมือนกัน ไปๆ มาๆ ดันไปแย่งเหยื่อเฟรดดี้หมดเลย อ้าว แบบนี้เฟรดดี้ก็โกรธสิ งวดนี้เลยต้องตีกัน ให้มันรู้กันไปว่าใครแน่กว่าใคร



    Quote:

    Format : Matroska
    File size : 8.27 GiB
    Duration : 1h 37mn
    Overall bit rate : 12.1 Mbps
    Movie name : Freddy.Vs.Jason.2003.1080p.BluRay.x264.CtHts - PORSC
    Encoded date : UTC 2012-10-22 14:57:19
    Writing application : mkvmerge v4.2.0 ( No Talking ) built on Jul 28 2010 18:38:23
    Writing library : libebml v1.0.0 + libmatroska v1.0.0

    Video
    ID : 1
    Format : AVC
    Format/Info : Advanced Video Codec
    Format profile : [email protected]
    Format settings, CABAC : Yes
    Format settings, ReFrames : 5 frames
    Muxing mode : Container [email protected]
    Codec ID : V_MPEG4/ISO/AVC
    Duration : 1h 37mn
    Bit rate : 9 941 Kbps
    Nominal bit rate : 10.2 Mbps
    Width : 1 920 pixels
    Height : 808 pixels
    Display aspect ratio : 2.35:1
    Frame rate : 23.976 fps
    Resolution : 8 bits
    Colorimetry : 4:2:0
    Scan type : Progressive
    Bits/(Pixel*Frame) : 0.267
    Stream size : 6.76 GiB (82%)


    Audio #1
    ID : 2
    Format : DTS
    Format/Info : Digital Theater Systems
    Codec ID : A_DTS
    Duration : 1h 37mn
    Bit rate mode : Constant
    Bit rate : 1 510 Kbps
    Channel(s) : 6 channels
    Channel positions : Front: L C R, Side: L R, LFE
    Sampling rate : 48.0 KHz
    Resolution : 24 bits
    Stream size : 1.03 GiB (12%)
    Title : English DTS

    Audio #2
    ID : 3
    Format : AC-3
    Format/Info : Audio Coding 3
    Codec ID : A_AC3
    Duration : 1h 37mn
    Bit rate mode : Constant
    Bit rate : 448 Kbps
    Channel(s) : 6 channels
    Channel positions : Front: L C R, Side: L R, LFE
    Sampling rate : 48.0 KHz
    Stream size : 312 MiB (4%)
    Title : Thai DVD Master
    Language : Thai

    Text #1
    ID : 4
    Format : VobSub
    Codec ID : S_VOBSUB
    Codec ID/Info : The same subtitle format used on DVDs
    Title : Thai 480p DVD Master
    Language : Thai

    Text #2
    ID : 5
    Format : VobSub
    Codec ID : S_VOBSUB
    Codec ID/Info : The same subtitle format used on DVDs
    Title : Thai 1080p Angsana
    Language : Thai

    Text #3
    ID : 6
    Format : VobSub
    Codec ID : S_VOBSUB
    Codec ID/Info : The same subtitle format used on DVDs
    Title : Thai 1080p Angsana Out
    Language : Thai

    Text #4
    ID : 7
    Format : VobSub
    Codec ID : S_VOBSUB
    Codec ID/Info : The same subtitle format used on DVDs
    Title : Thai 1080p Angsana Yellow
    Language : Thai

    Text #5
    ID : 8
    Format : VobSub
    Codec ID : S_VOBSUB
    Codec ID/Info : The same subtitle format used on DVDs
    Title : Thai 1080p Sarabun
    Language : Thai

    Text #6
    ID : 9
    Format : VobSub
    Codec ID : S_VOBSUB
    Codec ID/Info : The same subtitle format used on DVDs
    Title : English






    Quote:
    SS-จับจากตัวไฟล์ครับ











    Freddy_vs_Jason.mkv
    http://www.mekafile.com/dl.php?f=u885b6bCw2qA

  2. The Following 9 Users Say Thank You to Duckload.us For This Useful Post:

    agg001 (12-06-2012), beer181235 (12-05-2012), csoon (10-24-2012), DTLKILLERS (10-18-2013), henrykai (12-06-2012), pangkug (12-05-2012), surachai3545 (11-19-2013), TapesiiZ (05-08-2013), yutmut27 (10-23-2012)

  3. #2
    Senior Member
    Join Date
    Apr 2011
    Posts
    97
    Thanks
    10
    Thanked 0 Times in 0 Posts
    ขอบคุณมากๆเลยครับ

  4. #3
    Senior Member
    Join Date
    May 2012
    Posts
    255
    Thanks
    0
    Thanked 0 Times in 0 Posts
    ขอบคุณคับผม

  5. #4
    Senior Member
    Join Date
    Dec 2012
    Posts
    190
    Thanks
    219
    Thanked 0 Times in 0 Posts
    thank you so much

  6. #5
    Senior Member
    Join Date
    Jan 2011
    Posts
    668
    Thanks
    886
    Thanked 0 Times in 0 Posts
    ขอบคุณครับ

  7. #6
    Senior Member
    Join Date
    Mar 2013
    Posts
    156
    Thanks
    1
    Thanked 0 Times in 0 Posts
    ขอบคุณครับ

  8. #7
    Senior Member
    Join Date
    Apr 2013
    Posts
    606
    Thanks
    2
    Thanked 0 Times in 0 Posts
    ขอบคุณมากๆเลยครับ

+ Reply to Thread

Thread Information

Users Browsing this Thread

There are currently 1 users browsing this thread. (0 members and 1 guests)

     

Posting Permissions

  • You may not post new threads
  • You may not post replies
  • You may not post attachments
  • You may not edit your posts