+ Reply to Thread
Results 1 to 3 of 3
  1. #1
    Administrators Duckload.us's Avatar
    Join Date
    Dec 2010
    Posts
    104,270
    Thanks
    9
    Thanked 107,479 Times in 50,712 Posts

    Lightbulb [ฝรั่ง]-[SeasonPack 1080p WEB-DL] Arrow (2012) #1.1-#1.23 Complete Season 1 Episode 1-23 -HDTV.H.264.1080p. [From TV]-[Soundtrack บรรยายไทย/Eng]



    [SeasonPack 1080p] Arrow (2012) 1080p WEB-DL #1.1-#1.23 Complete Season 1 Episode 1-23






    บรรยายไทยโดย thaisubtitle.com
    Resync 1080p WEB-DL


    โอลิเวอร์ควีน มหาเศรษฐีเพลย์บอเป็นคนเดียวที่รอดชีวิตจากเรืออับปา ง แต่ถูก ติดอยู่บนเกาะที่ห่างไกล เป็นเวลาห้าปี ที่ผ่านมาเขาเปลี่ยนไป
    เมื่อกลับมาบ้าน โอลิเวอร์มุ่งมั่น ที่จะตอบสนองความปรารถนา
    ที่จะตายของบิดา สู้เพื่อความถูกต้อง ของครอบครัวควีนต่อสู้
    กับความเจ็บป่วยของสังคม และเรียกคืนเมืองตาร์ลิ่ง เพื่อ
    ความรุ่งโรจน์ในอดีต เพื่อต่อสู้กับอาชญากรรม และการทุจริต
    โอลิเวอร์ยังคง รักษาภาพลักษณ์ ของเขามหาเศรษฐีเพลย์บอย
    กลางวัน แต่กลายเป็นศาลเตี้ยกลางคืน ..




    Information
    First Aired: October 10, 2012
    Air Day: Wednesday
    Air Time: 8:00 pm
    Runtime: 60 minutes
    Network: The CW
    Genre: Action
    Adventure

    Actors



    Arrow S1 Airdate


    General
    Unique ID : 182984793784712351762060959238156433611 (0x89A996E11127D07DB41E5505AD1FB8CB)
    Complete name : H:ZriesArrow S1 1080pArrow.S01E23.Sacrifice.1080p.WEB-DL.DD5.1.H.264-BS (1).mkv
    Format : Matroska
    Format version : Version 4 / Version 2
    File size : 1.67 GiB
    Duration : 42mn 35s
    Overall bit rate : 5 613 Kbps
    Encoded date : UTC 2010-02-22 21:41:31
    Writing application : mkvmerge v5.9.0 ( On The Loose ) built on Dec 9 2012 15:37:01
    Writing library : libebml v1.3.0 + libmatroska v1.4.0

    Video
    ID : 1
    Format : AVC
    Format/Info : Advanced Video Codec
    Format profile : [email protected]
    Format settings, CABAC : Yes
    Format settings, ReFrames : 4 frames
    Muxing mode : Header stripping
    Codec ID : V_MPEG4/ISO/AVC
    Duration : 42mn 35s
    Bit rate : 5 117 Kbps
    Width : 1 920 pixels
    Height : 1 080 pixels
    Display aspect ratio : 16:9
    Frame rate mode : Constant
    Frame rate : 23.976 fps
    Color space : YUV
    Chroma subsampling : 4:2:0
    Bit depth : 8 bits
    Scan type : Progressive
    Bits/(Pixel*Frame) : 0.103
    Stream size : 1.52 GiB (91%)
    Language : English
    Default : Yes
    Forced : No
    Color primaries : BT.709
    Transfer characteristics : BT.709
    Matrix coefficients : BT.709

    Audio
    ID : 2
    Format : AC-3
    Format/Info : Audio Coding 3
    Mode extension : CM (complete main)
    Format settings, Endianness : Big
    Muxing mode : Header stripping
    Codec ID : A_AC3
    Duration : 42mn 35s
    Bit rate mode : Constant
    Bit rate : 384 Kbps
    Channel(s) : 6 channels
    Channel positions : Front: L C R, Side: L R, LFE
    Sampling rate : 48.0 KHz
    Bit depth : 16 bits
    Compression mode : Lossy
    Stream size : 117 MiB (7%)
    Language : English
    Default : Yes
    Forced : No

    Text #1
    ID : 3
    Format : UTF-8
    Codec ID : S_TEXT/UTF8
    Codec ID/Info : UTF-8 Plain Text
    Language : Thai
    Default : No
    Forced : Yes

    Text #2
    ID : 4
    Format : UTF-8
    Codec ID : S_TEXT/UTF8
    Codec ID/Info : UTF-8 Plain Text
    Title : CC
    Language : English
    Default : Yes
    Forced : No


    1
    http://www.filecondo.com/dl.php?f=h473251uElZ6
    2
    http://www.filecondo.com/dl.php?f=C115a41uEm1k
    3
    http://www.filecondo.com/dl.php?f=o6ed191uElTA
    4
    http://www.filecondo.com/dl.php?f=Nbef111uElV7
    5
    http://www.filecondo.com/dl.php?f=7163411uEm4H
    6
    http://www.filecondo.com/dl.php?f=sd857a1uEm2I
    7
    http://www.filecondo.com/dl.php?f=n12a811uEm3m
    8
    http://www.filecondo.com/dl.php?f=x460dc1uEm4a
    9
    http://www.filecondo.com/dl.php?f=Lad4721uEm7r
    10
    http://www.filecondo.com/dl.php?f=m4d69f1uEm5Q
    11
    http://www.filecondo.com/dl.php?f=N41b3b1uEm8j
    12
    http://www.filecondo.com/dl.php?f=n35ca51uElX6
    13
    http://www.filecondo.com/dl.php?f=8328f81uEm9e
    14
    http://www.filecondo.com/dl.php?f=od8e821uEm5b
    15
    http://www.filecondo.com/dl.php?f=ua6e901uEmaN
    16
    http://www.filecondo.com/dl.php?f=Fdf5e91uEmce
    17
    http://www.filecondo.com/dl.php?f=H845f01uElY3
    18
    http://www.filecondo.com/dl.php?f=C64ea61uEmdr
    19
    http://www.filecondo.com/dl.php?f=95099d1uEm9w
    20
    http://www.filecondo.com/dl.php?f=w568df1uEmbx
    21
    http://www.filecondo.com/dl.php?f=Gdb6cb1uEmer
    22
    http://www.filecondo.com/dl.php?f=s99e181uEmeM
    23
    http://www.filecondo.com/dl.php?f=i5108c1uEmeY

  2. The Following 3 Users Say Thank You to Duckload.us For This Useful Post:

    kcu99 (01-10-2014), Mosheeeee (01-29-2019), punnpoon (05-30-2013)

  3. #2
    Senior Member
    Join Date
    Jul 2012
    Posts
    6,039
    Thanks
    0
    Thanked 0 Times in 0 Posts
    ขอบคุณมากจ้าที่รวมไว้ที่เดียวกัน

  4. #3
    Member
    Join Date
    Apr 2011
    Posts
    81
    Thanks
    0
    Thanked 0 Times in 0 Posts
    ขอบคุณด้วยครับ ไม่ต้องหาทีละตอนแล้ว

+ Reply to Thread

Thread Information

Users Browsing this Thread

There are currently 1 users browsing this thread. (0 members and 1 guests)

     

Posting Permissions

  • You may not post new threads
  • You may not post replies
  • You may not post attachments
  • You may not edit your posts