+ Reply to Thread
Results 1 to 4 of 4
  1. #1
    Administrators Duckload.us's Avatar
    Join Date
    Dec 2010
    Posts
    107,002
    Thanks
    9
    Thanked 111,490 Times in 51,829 Posts

    Lightbulb [ฝรั่ง]-[เล็กพริกขี้หนู 1080p] Interview With A Hitman (2012) : ปิดบัญชีโหดโคตรมือปืนระห่ำ [พากย์ไทย5.1+อังกฤษ[email protected]]บรรยายไทย+อังกฤษ[เสียง+ซับ MASTER+ซับไทย PGS คมชัดถึงใจ]




    wrote:

    ...ด้วยความจำเป็นบางอย่าง วิคเตอร์ ต้องมือเปื้อนเลือดตั้งแต่เด็ก และจากเหตุการณ์นั้น ทำให้เจ้าพ่อคนหนึ่งเห็นแววในตัวเขา
    จึงฝึกเขาให้โตมาเป็นนักฆ่าระดับพระกาฬ แต่เมื่อมือปืนมือฉกาจได้เกิดมีความรักและต้องการจะว างมือ
    มันจึงไม่ง่ายเลยที่จะหนีอดีตที่เคยทำมา เขาต้องต่อสู้กับจิตใจด้านมืดของตัวเอง หนำซ้ำยังมีศัตรูเก่าที่จ้องจะแก้แค้นเขาอีกด้วย!!!


    wrote:

    Format : Matroska
    Format version : Version 4 / Version 2
    File size : 2.74 GiB
    Duration : 1h 35mn
    Overall bit rate : 4 098 Kbps
    Movie name : Interview.With.A Hitman.2012.1080p.BrRip.x264.DTS_by [email protected]
    Encoded date : UTC 2010-02-22 21:41:31
    Writing application : mkvmerge v5.9.0 ( On The Loose ) built on Dec 9 2012 15:37:01
    Writing library : libebml v1.3.0 + libmatroska v1.4.0

    Video
    ID : 1
    Format : AVC
    Format/Info : Advanced Video Codec
    Format profile : [email protected]
    Format settings, CABAC : Yes
    Format settings, ReFrames : 4 frames
    Codec ID : V_MPEG4/ISO/AVC
    Duration : 1h 35mn
    Bit rate : 2 142 Kbps
    Width : 1 920 pixels
    Height : 1 040 pixels
    Display aspect ratio : 1.85:1
    Frame rate mode : Constant
    Frame rate : 24.000 fps
    Color space : YUV
    Chroma subsampling : 4:2:0
    Bit depth : 8 bits
    Scan type : Progressive
    Bits/(Pixel*Frame) : 0.045
    Stream size : 1.42 GiB (52%)
    Title : Interview.With.A Hitman.2012.1080p.BrRip.x264.DTS_by [email protected]
    Writing library : x264 core 129 r2230 1cffe9f
    Encoding settings : cabac=1 / ref=4 / deblock=1:0:0 / analyse=0x3:0x113 / me=hex / subme=7 / psy=1 / psy_rd=1.00:0.00 / mixed_ref=1 / me_range=16 / chroma_me=1 / trellis=1 / 8x8dct=1 / cqm=0 / deadzone=21,11 / fast_pskip=1 / chroma_qp_offset=-2 / threads=6 / lookahead_threads=1 / sliced_threads=0 / nr=0 / decimate=1 / interlaced=0 / bluray_compat=0 / constrained_intra=0 / bframes=8 / b_pyramid=2 / b_adapt=1 / b_bias=0 / direct=1 / weightb=1 / open_gop=0 / weightp=2 / keyint=240 / keyint_min=24 / scenecut=40 / intra_refresh=0 / rc_lookahead=40 / rc=2pass / mbtree=1 / bitrate=2142 / ratetol=1.0 / qcomp=0.60 / qpmin=10 / qpmax=51 / qpstep=4 / cplxblur=20.0 / qblur=0.5 / ip_ratio=1.40 / aq=1:1.00
    Language : English
    Default : Yes
    Forced : No

    Audio #1
    ID : 2
    Format : DTS
    Format/Info : Digital Theater Systems
    Mode : 16
    Format settings, Endianness : Big
    Codec ID : A_DTS
    Duration : 1h 35mn
    Bit rate mode : Constant
    Bit rate : 1 509 Kbps
    Channel(s) : 6 channels
    Channel positions : Front: L C R, Side: L R, LFE
    Sampling rate : 48.0 KHz
    Bit depth : 24 bits
    Compression mode : Lossy
    Stream size : 1.01 GiB (37%)
    Title : English DTS
    Language : English
    Default : No
    Forced : No

    Audio #2
    ID : 3
    Format : AC-3
    Format/Info : Audio Coding 3
    Mode extension : CM (complete main)
    Format settings, Endianness : Big
    Codec ID : A_AC3
    Duration : 1h 35mn
    Bit rate mode : Constant
    Bit rate : 384 Kbps
    Channel(s) : 6 channels
    Channel positions : Front: L C R, Side: L R, LFE
    Sampling rate : 48.0 KHz
    Bit depth : 16 bits
    Compression mode : Lossy
    Stream size : 263 MiB (9%)
    Title : Thai DVD Master
    Language : Thai
    Default : Yes
    Forced : Yes

    Text #1
    ID : 4
    Format : VobSub
    Codec ID : S_VOBSUB
    Codec ID/Info : The same subtitle format used on DVDs
    Title : Thai 480p DVD Master
    Language : Thai
    Default : No
    Forced : No

    Text #2
    ID : 5
    Format : VobSub
    Codec ID : S_VOBSUB
    Codec ID/Info : The same subtitle format used on DVDs
    Title : Thai 1080p
    Language : Thai
    Default : Yes
    Forced : Yes

    Text #3
    ID : 6
    Format : VobSub
    Codec ID : S_VOBSUB
    Codec ID/Info : The same subtitle format used on DVDs
    Title : Thai 1080p Yellow
    Language : Thai
    Default : No
    Forced : No

    Text #4
    ID : 7
    Format : VobSub
    Codec ID : S_VOBSUB
    Codec ID/Info : The same subtitle format used on DVDs
    Title : Thai 1080p Low
    Language : Thai
    Default : No
    Forced : No

    Text #5
    ID : 8
    Format : PGS
    Codec ID : S_HDMV/PGS
    Codec ID/Info : The same subtitle format used on BDs/HD-DVDs
    Title : Thai PGS
    Language : Thai
    Default : No
    Forced : No

    Text #6
    ID : 9
    Format : PGS
    Codec ID : S_HDMV/PGS
    Codec ID/Info : The same subtitle format used on BDs/HD-DVDs
    Title : Thai PGS Yellow
    Language : Thai
    Default : No
    Forced : No

    Text #7
    ID : 10
    Format : PGS
    Codec ID : S_HDMV/PGS
    Codec ID/Info : The same subtitle format used on BDs/HD-DVDs
    Title : Thai PGS Low
    Language : Thai
    Default : No
    Forced : No

    Text #8
    ID : 11
    Format : UTF-8
    Codec ID : S_TEXT/UTF8
    Codec ID/Info : UTF-8 Plain Text
    Title : English
    Language : English
    Default : No
    Forced : No





    wrote:

    SS แค๊ปจากตัวไฟล์ ค่ะ





    ส่งมอบ โดย : NongZEZA~



    http://www.filecondo.com/dl.php?f=Gde0731uUeES

  2. The Following 7 Users Say Thank You to Duckload.us For This Useful Post:

    dude (07-03-2013), gonthmint (07-22-2013), masaomi (07-03-2013), meawza (07-05-2013), nofxfanclub (07-10-2013), ohmsuradech (07-07-2013), oretro (07-03-2013)

  3. #2
    Senior Member oretro's Avatar
    Join Date
    May 2013
    Posts
    125
    Thanks
    1,810
    Thanked 0 Times in 0 Posts
    ขอบคุณครับ

  4. #3
    Member madusa's Avatar
    Join Date
    Jun 2013
    Posts
    70
    Thanks
    41
    Thanked 0 Times in 0 Posts
    ............ ขอบคุณ.ขอบคุณ
    .........ขอบคุณ..........ขอบคุณ
    ......ขอบคุณ................ขอบคุณ
    ....ขอบคุณ.....................ขอบคุณ
    ...ขอบคุณ.......................ขอบคุณ...........ข อบคุณ.ขอบคุณ
    ..ขอบคุณ.........................ขอบคุณ......ขอบคุ ณ..........ขอบคุณ
    .ขอบคุณ..........................ขอบคุณ...ขอบคุณ.. .............ขอบคุณ
    ..ขอบคุณ..........................ขอบคุณ.......... .................ขอบคุณ
    ...ขอบคุณ..........................ขอบคุณ......... ..............ขอบคุณ
    ....ขอบคุณ........................................ .............. ขอบคุณ
    ......ขอบคุณ...................................... ..........ขอบคุณ
    ..........ขอบคุณ.................................. ....ขอบคุณ
    .............ขอบคุณ............................ขอบ คุณ
    .................ขอบคุณ...................ขอบคุณ
    ...................ขอบคุณ.............ขอบคุณ
    .......................ขอบคุณ.....ขอบคุณ
    .........................ขอบคุณขอบคุณ
    ..............................ขอบคุณ

  5. #4
    Senior Member
    Join Date
    Mar 2013
    Posts
    106
    Thanks
    0
    Thanked 0 Times in 0 Posts
    ขอบคุณครับ

+ Reply to Thread

Thread Information

Users Browsing this Thread

There are currently 1 users browsing this thread. (0 members and 1 guests)

     

Posting Permissions

  • You may not post new threads
  • You may not post replies
  • You may not post attachments
  • You may not edit your posts