+ Reply to Thread
Results 1 to 1 of 1
  1. #1
    Administrators Duckload.us's Avatar
    Join Date
    Dec 2010
    Posts
    105,316
    Thanks
    9
    Thanked 108,924 Times in 51,129 Posts

    Lightbulb [เกาหลี]- Love 911 : วุ่นรักนักผจญเพลิง-CtHts.[พากย์ไทย 5.1+เกาหลี [email protected]]-[บรรยายไทย+อังกฤษ]-[เสียง+ซับ MASTER : +ซับไทย PGS คมชัดถึงใจ]



    wrote:

    ..."คังอิล" ผู้ที่จมอยู่กับความเจ็บปวดในอดีต "มีซู" ผู้ที่ไม่ยอมอ่อนข้อให้ใครและโชคชะตาก็นำพวกเขาทั้งส องคนให้มาพบกัน
    ในวันที่เกิดเหตุการณ์เดียวกันนั่นเอง คังอิล (โค ซู) ที่ซึ่งทุกๆ วันของการทำงาน เขาต้องเสี่ยงชีวิตในสถานการณ์ต่างๆ
    แต่ก็ต้องทนทุกข์กับความเจ็บปวดในอดีตอยู่เสมอ "มีซู" (ฮัน ฮโย จู) แพทย์สาวที่คอยช่วยเหลืออยู่ในทีมเดียวกับ "คังอิล"
    แต่เธอเป็นคนที่เปิดเผย ไม่ฟังใครทั้งสิ้น "มีซู" ทำงานอยู่ในหน่วยกู้ภัยฉุกเฉิน ส่วน "คังอิล" ก็ทำงานอยู่ในหน่วยงานเดียวกัน
    และนั่นทำให้พวกเขาทั้งสองคนค่อยๆ เปิดใจกัน "มีซู" คอยทำทุกวิถีทางให้ "คังอิล" หลุดพ้นจากความโศกเศร้าและ "คังอิล" เอง
    ที่แต่เดิมนั้นปิดกั้นหัวใจตัวเองมาตลอด จนในที่สุดเขาก็เริ่มเปิดใจให้กับเธอเหล่านักดับเพลิ งต้องวุ่นวายอยู่กับการ ช่วยเหลือผู้ประสบภัยต่างๆ
    ตั้งแต่เหตุแก๊สระเบิดไปจนถึงเหตุรถชนโดยไม่หยุดหย่อ น ซึ่งต้องจัดการให้ทุกอย่างนั้นผ่านพ้นไปด้วยดี
    และในวันรุ่งขึ้นพวกเขาก็ต้องรับมือกับงานเช่นนี้กัน อีกครั้งใช้ชีวิตเพื่อ ช่วยชีวิตผู้อื่นท่ามกลางสถานการณ์อันเลวร้ายระหว่าง "คังอิล" กับ "มีซู"
    เรื่องราวของพวกเขาจะช่วยบรรเทาความเจ็บปวดของผู้อื่ นได้หรือไม่ เรื่องราวที่แสนอบอุ่นยิ่งกว่าความรักนั้น ได้เริ่มขึ้นแล้ว!!!


    wrote:

    Format : Matroska
    Format version : Version 4 / Version 2
    File size : 10.2 GiB
    Duration : 2h 0mn
    Overall bit rate : 12.1 Mbps
    Movie name : Love.911.2012.BluRay.1080p.DTS.x264_by [email protected]
    Encoded date : UTC 2010-02-22 21:41:31
    Writing application : mkvmerge v5.9.0 ( On The Loose ) built on Dec 9 2012 15:37:01
    Writing library : libebml v1.3.0 + libmatroska v1.4.0

    Video
    ID : 1
    Format : AVC
    Format/Info : Advanced Video Codec
    Format profile : [email protected]
    Format settings, CABAC : Yes
    Format settings, ReFrames : 5 frames
    Codec ID : V_MPEG4/ISO/AVC
    Duration : 2h 0mn
    Bit rate : 10 000 Kbps
    Width : 1 920 pixels
    Height : 820 pixels
    Display aspect ratio : 2.35:1
    Frame rate mode : Constant
    Frame rate : 23.976 fps
    Color space : YUV
    Chroma subsampling : 4:2:0
    Bit depth : 8 bits
    Scan type : Progressive
    Bits/(Pixel*Frame) : 0.265
    Stream size : 8.37 GiB (82%)
    Title : Love.911.2012.BluRay.1080p.DTS.x264_by [email protected]
    Writing library : x264 core 120
    Encoding settings : cabac=1 / ref=5 / deblock=1:-3:-3 / analyse=0x3:0x133 / me=umh / subme=10 / psy=1 / psy_rd=1.00:0.00 / mixed_ref=1 / me_range=32 / chroma_me=1 / trellis=2 / 8x8dct=1 / cqm=0 / deadzone=21,11 / fast_pskip=1 / chroma_qp_offset=-2 / threads=6 / sliced_threads=0 / nr=0 / decimate=1 / interlaced=0 / bluray_compat=0 / constrained_intra=0 / bframes=6 / b_pyramid=2 / b_adapt=2 / b_bias=0 / direct=3 / weightb=1 / open_gop=0 / weightp=2 / keyint=240 / keyint_min=24 / scenecut=40 / intra_refresh=0 / rc_lookahead=50 / rc=2pass / mbtree=1 / bitrate=10000 / ratetol=1.0 / qcomp=0.60 / qpmin=3 / qpmax=69 / qpstep=4 / cplxblur=20.0 / qblur=0.5 / ip_ratio=1.40 / aq=1:1.00
    Language : English
    Default : Yes
    Forced : No
    Color primaries : BT.709
    Transfer characteristics : BT.709
    Matrix coefficients : BT.709

    Audio #1
    ID : 2
    Format : DTS
    Format/Info : Digital Theater Systems
    Mode : 16
    Format settings, Endianness : Big
    Codec ID : A_DTS
    Duration : 2h 0mn
    Bit rate mode : Constant
    Bit rate : 1 509 Kbps
    Channel(s) : 6 channels
    Channel positions : Front: L C R, Side: L R, LFE
    Sampling rate : 48.0 KHz
    Bit depth : 16 bits
    Compression mode : Lossy
    Stream size : 1.27 GiB (13%)
    Title : Korean DTS
    Language : Korean
    Default : No
    Forced : No

    Audio #2
    ID : 3
    Format : AC-3
    Format/Info : Audio Coding 3
    Mode extension : CM (complete main)
    Format settings, Endianness : Big
    Codec ID : A_AC3
    Duration : 2h 0mn
    Bit rate mode : Constant
    Bit rate : 384 Kbps
    Channel(s) : 6 channels
    Channel positions : Front: L C R, Side: L R, LFE
    Sampling rate : 48.0 KHz
    Bit depth : 16 bits
    Compression mode : Lossy
    Delay relative to video : 50ms
    Stream size : 332 MiB (3%)
    Title : Thai DVD Master
    Language : Thai
    Default : Yes
    Forced : Yes

    Text #1
    ID : 4
    Format : VobSub
    Codec ID : S_VOBSUB
    Codec ID/Info : The same subtitle format used on DVDs
    Title : Thai DVD Master
    Language : Thai
    Default : No
    Forced : No

    Text #2
    ID : 5
    Format : VobSub
    Codec ID : S_VOBSUB
    Codec ID/Info : The same subtitle format used on DVDs
    Title : Thai 720p
    Language : Thai
    Default : No
    Forced : No

    Text #3
    ID : 6
    Format : VobSub
    Codec ID : S_VOBSUB
    Codec ID/Info : The same subtitle format used on DVDs
    Title : Thai 1080p
    Language : Thai
    Default : Yes
    Forced : Yes

    Text #4
    ID : 7
    Format : VobSub
    Codec ID : S_VOBSUB
    Codec ID/Info : The same subtitle format used on DVDs
    Title : Thai 1080p Out
    Language : Thai
    Default : No
    Forced : No

    Text #5
    ID : 8
    Format : VobSub
    Codec ID : S_VOBSUB
    Codec ID/Info : The same subtitle format used on DVDs
    Title : Thai 1080p Yellow
    Language : Thai
    Default : No
    Forced : No

    Text #6
    ID : 9
    Format : VobSub
    Codec ID : S_VOBSUB
    Codec ID/Info : The same subtitle format used on DVDs
    Title : Thai 1080p BIG
    Language : Thai
    Default : No
    Forced : No

    Text #7
    ID : 10
    Format : PGS
    Codec ID : S_HDMV/PGS
    Codec ID/Info : The same subtitle format used on BDs/HD-DVDs
    Title : Thai PGS
    Language : Thai
    Default : No
    Forced : No

    Text #8
    ID : 11
    Format : PGS
    Codec ID : S_HDMV/PGS
    Codec ID/Info : The same subtitle format used on BDs/HD-DVDs
    Title : Thai PGS Yellow
    Language : Thai
    Default : No
    Forced : No

    Text #9
    ID : 12
    Format : PGS
    Codec ID : S_HDMV/PGS
    Codec ID/Info : The same subtitle format used on BDs/HD-DVDs
    Title : Thai PGS Out
    Language : Thai
    Default : No
    Forced : No

    Text #10
    ID : 13
    Format : VobSub
    Codec ID : S_VOBSUB
    Codec ID/Info : The same subtitle format used on DVDs
    Title : Korean
    Language : Korean
    Default : No
    Forced : No

    Text #11
    ID : 14
    Format : VobSub
    Codec ID : S_VOBSUB
    Codec ID/Info : The same subtitle format used on DVDs
    Title : English
    Language : English
    Default : No
    Forced : No


    wrote:

    SS แค๊ปจากตัวไฟล์ ค่ะ






    ส่งมอบ โดย : NongZEZA~



    http://www.filecondo.com/dl.php?f=a8c6a41HNYQX fix

  2. The Following 2 Users Say Thank You to Duckload.us For This Useful Post:

    DTLKILLERS (10-31-2013), lyongyuth (11-02-2013)

+ Reply to Thread

Thread Information

Users Browsing this Thread

There are currently 1 users browsing this thread. (0 members and 1 guests)

     

Posting Permissions

  • You may not post new threads
  • You may not post replies
  • You may not post attachments
  • You may not edit your posts