+ Reply to Thread
Results 1 to 4 of 4
  1. #1
    Administrators Duckload.us's Avatar
    Join Date
    Dec 2010
    Posts
    107,748
    Thanks
    7
    Thanked 112,521 Times in 52,094 Posts

    Exclamation [ฝรั่ง]-[Super Mini-HD] Olympus Has Fallen <ฝ่าวิกฤติ วินาศกรรมทำเนียบขาว> 2013 [เสียงไทย 5.1+ อังกฤษ 5.1]-[บรรยายไทย+อังกฤษ]-Encode.H.264.720p.




    เรื่องย่อ
    กลุ่มหัวรุนแรงที่ผ่านการฝึกฝนมาอย่างดีและอาวุธครบม ือกลุ่มเล็กๆ ได้ทำการอุกอาจเข้ายึดทำเนียบขาวกลางวันแสกๆ พวกเขาแทรกซึมเข้าไปในทำเนียบและจับตัวประธานาธิบดีเ บนจามิน แอชเชอร์ (แอรอน เอ็คฮาร์ท) และเจ้าหน้าที่ของเขาเป็นตัวประกันภายในหลุมหลบภัยใต ้ดินของประธานาธิบดี ที่มีการคุ้มกันอย่างแน่นหนา ขณะที่มีการต่อสู้กันอย่างดุเดือดที่ลานสนามหญ้าหน้า ทำเนียบขาว ไมค์ แบนนิ่ง (เจอราร์ด บัตเลอร์) อดีตเจ้าหน้าที่หน่วยรักษาความปลอดภัย ก็กระโจนเข้าร่วมวงด้วย ก่อนที่เขาจะพบว่าเขาเป็นสมาชิกหน่วยรักษาความปลอดภั ยประธานาธิบดีคนสุดท้าย ที่ยังมีชีวิตอยู่ในอาคารที่ถูกยึดหลังนี้แบนนิ่งใช้ การฝึกฝนอย่างหนักและ ความรู้อย่างละเอียดเกี่ยวกับที่พำนักของประธานาธิบด ีในการเป็นหูเป็นตาให้ กับอัลลัน ทรัมบุล (มอร์แกน ฟรีแมน) ผู้รักษาการแทนประธานาธิบดีและที่ปรึกษาของเขา เมื่อผู้บุกรุกเริ่มสังหารตัวประกันและขู่ที่จะฆ่าตั วประกันเพิ่มเติมหากไม่ มีการทำตามข้อเรียกร้องที่สุดโต่ง
    ของพวกเขา แบนนิ่งก็พยายามอย่างสุดความสามารถที่จะหาตัวลูกชายข องประธานาธิบดีที่ซ่อน ตัวอยู่ที่ไหนซักแห่งในอาคารแห่งนี้และช่วยชีวิตประธ านาธิบดีเอาไว้ให้ได้ ก่อนที่ผู้ก่อการร้ายจะใช้แผนการขั้นสุดท้ายที่น่าสะ พรึงกลัวของพวกเขา เมื่อจำนวนศพมากขึ้นและเวลาเหลือน้อยลงเรื่อยๆ สิ่งที่ปรากฏชัดคือแบนนิงเป็นความหวังเพียงหนึ่งเดีย วที่จะทำให้อเมริการอด พ้นจากหายนะได้







    Format : Matroska
    Format version : Version 4 / Version 2
    File size : 1.51 GiB
    Duration : 1h 59mn
    Overall bit rate : 1 817 Kbps
    Movie name : [Super Mini-HD] Olympus Has Fallen [2013] 720p.ink.siambit
    Encoded date : UTC 2014-06-30 11:40:46
    Writing application : mkvmerge v6.9.1 ( Blue Panther ) 32bit built on Apr 18 2014 18:15:44
    Writing library : libebml v1.3.0 + libmatroska v1.4.1

    Video
    ID : 1
    Format : AVC
    Format/Info : Advanced Video Codec
    Format profile : [email protected]
    Format settings, CABAC : Yes
    Format settings, ReFrames : 4 frames
    Codec ID : V_MPEG4/ISO/AVC
    Bit rate : 1 300 Kbps
    Width : 1 280 pixels
    Height : 544 pixels
    Display aspect ratio : 2.35:1
    Frame rate mode : Variable
    Color space : YUV
    Chroma subsampling : 4:2:0
    Bit depth : 8 bits
    Scan type : Progressive
    Title : [Super Mini-HD] Olympus Has Fallen [2013] 720p
    Writing library : x264 core 120
    Encoding settings : cabac=1 / ref=3 / deblock=1:0:0 / analyse=0x3:0x113 / me=umh / subme=9 / psy=1 / psy_rd=1.00:0.00 / mixed_ref=1 / me_range=16 / chroma_me=1 / trellis=1 / 8x8dct=1 / cqm=0 / deadzone=21,11 / fast_pskip=1 / chroma_qp_offset=-2 / threads=12 / sliced_threads=0 / nr=0 / decimate=1 / interlaced=0 / bluray_compat=0 / constrained_intra=0 / bframes=3 / b_pyramid=2 / b_adapt=2 / b_bias=0 / direct=1 / weightb=1 / open_gop=0 / weightp=2 / keyint=240 / keyint_min=24 / scenecut=40 / intra_refresh=0 / rc_lookahead=50 / rc=2pass / mbtree=1 / bitrate=1300 / ratetol=1.0 / qcomp=0.60 / qpmin=3 / qpmax=69 / qpstep=4 / cplxblur=20.0 / qblur=0.5 / ip_ratio=1.40 / aq=1:1.00
    Language : English
    Default : Yes
    Forced : No
    Color primaries : BT.709
    Transfer characteristics : BT.709
    Matrix coefficients : BT.709

    Audio #1
    ID : 2
    Format : AC-3
    Format/Info : Audio Coding 3
    Mode extension : CM (complete main)
    Format settings, Endianness : Big
    Codec ID : A_AC3
    Duration : 1h 59mn
    Bit rate mode : Constant
    Bit rate : 256 Kbps
    Channel(s) : 6 channels
    Channel positions : Front: L C R, Side: L R, LFE
    Sampling rate : 48.0 KHz
    Bit depth : 16 bits
    Compression mode : Lossy
    Stream size : 218 MiB (14%)
    Title : Thai 5.1 Dolby Digital
    Language : Thai
    Default : Yes
    Forced : No

    Audio #2
    ID : 3
    Format : AC-3
    Format/Info : Audio Coding 3
    Mode extension : CM (complete main)
    Format settings, Endianness : Big
    Codec ID : A_AC3
    Duration : 1h 59mn
    Bit rate mode : Constant
    Bit rate : 256 Kbps
    Channel(s) : 6 channels
    Channel positions : Front: L C R, Side: L R, LFE
    Sampling rate : 48.0 KHz
    Bit depth : 16 bits
    Compression mode : Lossy
    Stream size : 218 MiB (14%)
    Title : English 5.1 Dolby Digital
    Language : English
    Default : No
    Forced : No

    Text #1
    ID : 4
    Format : VobSub
    Codec ID : S_VOBSUB
    Codec ID/Info : The same subtitle format used on DVDs
    Title : Thai DVD Master
    Language : Thai
    Default : No
    Forced : No

    Text #2
    ID : 5
    Format : UTF-8
    Codec ID : S_TEXT/UTF8
    Codec ID/Info : UTF-8 Plain Text
    Title : English
    Language : English
    Default : No
    Forced : No


    http://www.mekafile.com/dl.php?f=d7f16f1x4kkL

  2. The Following User Says Thank You to Duckload.us For This Useful Post:

    PUNKROCK (07-28-2014)

  3. #2
    Senior Member PUNKROCK's Avatar
    Join Date
    Jul 2011
    Posts
    1,253
    Thanks
    1,139
    Thanked 0 Times in 0 Posts
    . อยากจะจูบอยากจะหอมแก้มพี่ผู้มีพระคุณได้หาสิ่งดีๆมา ให้น้อง punkrock ได้บันเทิง น้องอยากจะพูดว่า ขอบคุณหลายๆเด้อ เป็นกำลังใจให้เสมอครับ ขอบพระคุณอย่างสูงครับ
    PUNKROCK NEVERDIE

  4. #3
    Junior Member
    Join Date
    Feb 2014
    Posts
    2
    Thanks
    55
    Thanked 0 Times in 0 Posts
    ขอบคุณมากคร้าบ

  5. #4
    Senior Member PUNKROCK's Avatar
    Join Date
    Jul 2011
    Posts
    1,253
    Thanks
    1,139
    Thanked 0 Times in 0 Posts
    . โชคดีมีความสุข นะครับพี่
    PUNKROCK NEVERDIE

+ Reply to Thread

Thread Information

Users Browsing this Thread

There are currently 1 users browsing this thread. (0 members and 1 guests)

     

Posting Permissions

  • You may not post new threads
  • You may not post replies
  • You may not post attachments
  • You may not edit your posts