+ Reply to Thread
Results 1 to 1 of 1
  1. #1
    Administrators Duckload.us's Avatar
    Join Date
    Dec 2010
    Posts
    104,270
    Thanks
    9
    Thanked 107,480 Times in 50,713 Posts

    Lightbulb [เกาหลี]-[Kr.Serie Complete] - Prime Minister and I / รักวุ่นวายกับคุณชายนายก [720P] [EP01-17/END]-HDTV.H.264.720p. [From TV]-[พากย์ไทย บรรยายไทย]







    ชื่อเรื่อง : The Prime Minister and I
    ชื่อเรื่องอื่นๆ : Prime Minister Is Dating
    ประเภท : โรแมนติก คอมเมดี้
    จำนวนตอน : 17
    ออกอากาศช่อง : KBS2
    ช่วงเวลาออกอากาศ : 09 ธ.ค. 2556 - 28 ม.ค. 2557
    เวลาออกอากาศ : จัน - อังคาร [เวลา 21:55 ตามเวลาเกาหลี] [เวลา 19:55 ตามเวลาไทย]



    เรื่องย่อ

    นายกรัฐมนตรี ควอนยุล (รับบทโดย อีบอมซู) พ่อหม้ายลูกสาม เขาสามารถทำงานได้ดีอย่างไม่ขาดตกบกพร่อง แต่ทว่าเรื่องดูแลลูกๆ ดูเหมือนจะตรงกันข้ามกันสิ้นดี ส่วนนักข่าวสาวนัมดาจอง(อิมยุนอา) เธอต้องปลอมตัว เพื่อไปหาข่าวที่บ้านนายกควอนยุล แต่แล้ว ดาจองต้องต้องกลายเป็นภรรยาของท่านนายก ควอนยุล เพราะข่าวลือ โชคชะตาที่ไม่คาดฝันจึงเกิดขึ้น นัมดาจองเปรียบเสมือนของขวัญวันคริสต์มาสสำหรับเขาแล ะลูกๆ มาติดตามเรื่องราวความรัก โขคชะตาที่ทำให้เขาทั้งสองต้องมาเจอกัน กับ The Prime Minister and I



    นักแสดง

    Lee Bum Soo รับบทเป็น Kwon Yul ควอนยุล
    Im Yoon Ah รับบทเป็น Nam Da Jung นัมดาจอง
    Chae Jung Ahn รับบทเป็น Seo Hye Joo ซอฮเยจู
    Yoon Shi Yoon รับบทเป็น Kang In Ho คังอินโฮ
    Ryu Jin รับบทเป็น Park Joon Ki พัคชุนกี

    คนที่เกี่ยวข้องกับ ควอนยุล

    Choi Soo Han รับบทเป็น Kwon Woo Ri ควอนอูรี
    Jeon Min Seo รับบทเป็น kwon Na Ra ควอนนารา
    Lee Do Hyun รับบทเป็น Kwon Man Se ควอนมันเซ
    Jun Won Joo รับบทเป็น Na Young Soon นายองซุน
    Lee Young Bum รับบทเป็น Shim Sung Il ชิมซองอิล
    Jung Ae Yun รับบทเป็น Park Na Young พัคนายอง

    คนที่เกี่ยวข้องกับดาจอง

    Lee Han Wie รับบทเป็น Nam Yu Sik นัมยูชิก
    Choi Duk Moon รับบทเป็น Go Dal Pyo โคทัลพโย
    Lee Min Ho (1993) รับบทเป็น Park Hee Chul พัคฮีชอล
    Min Sung Wook รับบทเป็น Byun Woo Chul พยอนอูชอล

    คนที่เกี่ยวข้องกับ อินโฮ

    Kim Ji Wan รับบทเป็น Kang Soo Ho คังซูโฮ

    คนที่เกี่ยวข้องกับชุนกี

    Yoon Hae Young รับบทเป็น Na Yun Hee (ภรรยาชุนกี) นายุนฮี
    Jang Hee Woong รับบทเป็น Bae In Kwon แพอินควอน

    นักแสดงอื่นๆ

    Song Min Hyung รับบทเป็น Kim Tae Man คิมแทมัน
    Hong Sung Sook รับบทเป็น Jang Eun Hye ชังอึนฮเย

    Production Credits

    Production Company : SM C&C Chief Producer: Kim Byung Il
    Producer : Park Man Young
    Director : Lee So Yeon
    Screenwriter : Kim Eun Hee, Yoon Eun Kyung






    Format : Matroska
    Format version : Version 4 / Version 2
    File size : 2.17 GiB
    Duration : 59mn 21s
    Overall bit rate : 5 230 Kbps
    Encoded date : UTC 2010-02-22 21:41:31
    Writing application : mkvmerge v5.9.0 ( On The Loose ) built on Dec 9 2012 15:37:01
    Writing library : libebml v1.3.0 + libmatroska v1.4.0

    Video
    ID : 1
    Format : AVC
    Format/Info : Advanced Video Codec
    Format profile : [email protected]
    Format settings, CABAC : Yes
    Format settings, ReFrames : 5 frames
    Muxing mode : Header stripping
    Codec ID : V_MPEG4/ISO/AVC
    Duration : 59mn 21s
    Bit rate : 4 876 Kbps
    Width : 1 280 pixels
    Height : 720 pixels
    Display aspect ratio : 16:9
    Frame rate mode : Constant
    Frame rate : 29.970 fps
    Color space : YUV
    Chroma subsampling : 4:2:0
    Bit depth : 8 bits
    Scan type : Progressive
    Bits/(Pixel*Frame) : 0.177
    Stream size : 1.97 GiB (91%)
    Title : The.Prime.Minister.and.I.E01.720p.HDTV.x264-AREA11
    Writing library : x264 core 138 r2358 9e941d1
    Default : Yes
    Forced : No

    Audio
    ID : 2
    Format : AC-3
    Format/Info : Audio Coding 3
    Mode extension : CM (complete main)
    Format settings, Endianness : Big
    Muxing mode : Header stripping
    Codec ID : A_AC3
    Duration : 59mn 21s
    Bit rate mode : Constant
    Bit rate : 384 Kbps
    Channel(s) : 2 channels
    Channel positions : Front: L R
    Sampling rate : 48.0 KHz
    Bit depth : 16 bits
    Compression mode : Lossy
    Stream size : 163 MiB (7%)
    Default : Yes
    Forced : No

    Text
    ID : 3
    Format : UTF-8
    Codec ID : S_TEXT/UTF8
    Codec ID/Info : UTF-8 Plain Text
    Title : SRT
    Language : Thai
    Default : Yes
    Forced : No




    1
    http://www.filecondo.com/dl.php?f=O454de1xTZ4z
    2
    http://www.filecondo.com/dl.php?f=b27a581xTZ6k
    3
    http://www.filecondo.com/dl.php?f=D3ac181xTZ3N
    4
    http://www.filecondo.com/dl.php?f=2224831xTZ1n
    5
    http://www.filecondo.com/dl.php?f=1c1bbd1xTZ6z
    6
    http://www.filecondo.com/dl.php?f=we91911xTZd4
    7
    http://www.filecondo.com/dl.php?f=d7d4ab1xTZ7P
    8
    http://www.filecondo.com/dl.php?f=74e78a1xTZdQ
    9
    http://www.filecondo.com/dl.php?f=Ae59d51xTZet
    10
    http://www.filecondo.com/dl.php?f=td19b81xTZ8V
    11
    http://www.filecondo.com/dl.php?f=d3b3d81xTZdr
    12
    http://www.filecondo.com/dl.php?f=265a6b1xTZdC
    13
    http://www.filecondo.com/dl.php?f=m858881xTZ9I
    14
    http://www.filecondo.com/dl.php?f=E6499a1xTZeN
    15
    http://www.filecondo.com/dl.php?f=9af6991xTZar
    16
    http://www.filecondo.com/dl.php?f=d5f95b1xTZ8R
    17
    http://www.filecondo.com/dl.php?f=rc8eb11xTZeY

  2. The Following User Says Thank You to Duckload.us For This Useful Post:

    kit79 (10-16-2016)

+ Reply to Thread

Thread Information

Users Browsing this Thread

There are currently 1 users browsing this thread. (0 members and 1 guests)

     

Posting Permissions

  • You may not post new threads
  • You may not post replies
  • You may not post attachments
  • You may not edit your posts