+ Reply to Thread
Results 1 to 3 of 3
  1. #1
    Administrators Duckload.us's Avatar
    Join Date
    Dec 2010
    Posts
    91,007
    Thanks
    9
    Thanked 93,958 Times in 45,242 Posts

    Exclamation [เกาหลี]-The Classic (2003) : คนแรกของหัวใจ คนสุดท้ายของชีวิต HDTV.720p.x264 [Sound: Th 5.1 - Kor] [Sub:Thai]-HDTV.AC-3.720p. [Rip]-[พากย์ไทย]




    The Classic-คนแรกของหัวใจ คนสุดท้ายของชีวิต (Rip จากตัว 1080i ครับ)


    รายละเอียดเรื่องย่อ/Synopsis

    เรื่องราวความรักของ Ji-hae ที่ตกหลุมรักหนุ่มหล่อที่ใครๆเก็ หมายปองอย่าง Sang-min แต่ติดตรงที่ว่าเพื่อนสนิทของเธอก็แอบรัก Sang-min อยู่เหมือนกัน Ji-hae จึงยอมหลีกทางให้โดยแอบเก็บความรักนั้นไว้ในใจ ในขณะเดียวกัน Ji-hae ได้ไปเจอสมุดบันทึกความรักเมื่อครั้งอดีตของแม่ของเธ อ Joo-hee กับ Joon-ha และ.เธอ จึงได้พบว่า ความรักของเธอนั้น เทียบไม่ได้เลยกับความยากลำบากกว่าจะได้พบรักกันของแ ม่ของเธอ พบภาพยนตร์รักสุดประทับใจกับเรื่องราวความรัก 2 ยุคที่ไม่ได้ผันเปลี่ยนไปตามกาลเวลา ผลงานภาพยนตร์ล่าสุดจากผู้กำกับ My Sassy Girl ยัยตัวร้ายกับนายเจี๋ยมเจี้ยม ที่เคยสร้างความประทับใจมาแล้วทั่วโลก
    Visit: http://www.amornmovie.com
    รายละเอียดสินค้า/Product Details
    นักแสดง/Actors :
    - Son Ye-Jin (ซอน เย-จิน)
    - Noah Ringer
    - Cho In-sung (โจอินซุง)

    ผู้กำกับ/Directors :
    - Kwak Jae-yong


    Format : Matroska
    Format version : Version 2
    File size : 3.08 GiB
    Duration : 2h 12mn
    Overall bit rate : 3 328 Kbps
    Movie name : From Dusk Till Dawn (1996) HDCLUB
    Encoded date : UTC 2011-07-22 21:37:05
    Writing application : mkvmerge v4.8.0 ( I Got The... ) built on May 24 2011 03:12:58
    Writing library : libebml v1.2.0 + libmatroska v1.1.0

    Video
    ID : 1
    Format : AVC
    Format/Info : Advanced Video Codec
    Format profile : [email protected]
    Format settings, CABAC : Yes
    Format settings, ReFrames : 8 frames
    Muxing mode : Header stripping
    Codec ID : V_MPEG4/ISO/AVC
    Duration : 2h 12mn
    Bit rate : 2 430 Kbps
    Width : 1 280 pixels
    Height : 720 pixels
    Display aspect ratio : 16:9
    Frame rate mode : Constant
    Frame rate : 29.970 fps
    Color space : YUV
    Chroma subsampling : 4:2:0
    Bit depth : 8 bits
    Scan type : Progressive
    Bits/(Pixel*Frame) : 0.088
    Stream size : 2.25 GiB (73%)
    Writing library : x264 core 92 r1510 33d382a
    Encoding settings : cabac=1 / ref=8 / deblock=1:-1:-1 / analyse=0x3:0x133 / me=umh / subme=7 / psy=1 / psy_rd=1.00:0.10 / mixed_ref=1 / me_range=16 / chroma_me=1 / trellis=2 / 8x8dct=1 / cqm=0 / deadzone=21,11 / fast_pskip=0 / chroma_qp_offset=-3 / threads=6 / sliced_threads=0 / nr=0 / decimate=1 / interlaced=0 / constrained_intra=0 / bframes=3 / b_pyramid=2 / b_adapt=2 / b_bias=0 / direct=3 / wpredb=1 / wpredp=2 / keyint=250 / keyint_min=25 / scenecut=40 / intra_refresh=0 / rc_lookahead=50 / rc=crf / mbtree=1 / crf=21.0 / qcomp=0.60 / qpmin=10 / qpmax=51 / qpstep=4 / ip_ratio=1.40 / aq=1:1.00
    Default : Yes
    Forced : No

    Audio #1
    ID : 2
    Format : AC-3
    Format/Info : Audio Coding 3
    Mode extension : CM (complete main)
    Format settings, Endianness : Big
    Muxing mode : Header stripping
    Codec ID : A_AC3
    Duration : 2h 12mn
    Bit rate mode : Constant
    Bit rate : 640 Kbps
    Channel(s) : 6 channels
    Channel positions : Front: L C R, Side: L R, LFE
    Sampling rate : 48.0 KHz
    Bit depth : 16 bits
    Compression mode : Lossy
    Stream size : 607 MiB (19%)
    Title : Thai 640k
    Language : Thai
    Default : No
    Forced : No

    Audio #2
    ID : 3
    Format : AC-3
    Format/Info : Audio Coding 3
    Mode extension : CM (complete main)
    Format settings, Endianness : Big
    Muxing mode : Header stripping
    Codec ID : A_AC3
    Duration : 2h 12mn
    Bit rate mode : Constant
    Bit rate : 192 Kbps
    Channel(s) : 2 channels
    Channel positions : Front: L R
    Sampling rate : 48.0 KHz
    Bit depth : 16 bits
    Compression mode : Lossy
    Stream size : 182 MiB (6%)
    Title : kor
    Language : Korean
    Default : Yes
    Forced : No

    Text
    ID : 4
    Format : VobSub
    Muxing mode : zlib
    Codec ID : S_VOBSUB
    Codec ID/Info : The same subtitle format used on DVDs
    Title : thai
    Language : Thai
    Default : Yes
    Forced : No



    http://www.mekafile.com/dl.php?f=c369fd1y1xAR

  2. The Following 3 Users Say Thank You to Duckload.us For This Useful Post:

    B-Faii (03-14-2018), bigbang06 (03-17-2018), xchamp (12-22-2014)

  3. #2
    Senior Member B-Faii's Avatar
    Join Date
    Oct 2012
    Location
    THAILAND
    Posts
    1,109
    Thanks
    1,268
    Thanked 0 Times in 0 Posts
    ขอบคุณมากๆเลยจ้าา

  4. #3
    Senior Member
    Join Date
    Jul 2012
    Posts
    5,527
    Thanks
    0
    Thanked 0 Times in 0 Posts
    ขอบคุณมากจ้า

+ Reply to Thread

Thread Information

Users Browsing this Thread

There are currently 1 users browsing this thread. (0 members and 1 guests)

     

Posting Permissions

  • You may not post new threads
  • You may not post replies
  • You may not post attachments
  • You may not edit your posts