+ Reply to Thread
Results 1 to 2 of 2
  1. #1
    Administrators Duckload.us's Avatar
    Join Date
    Dec 2010
    Posts
    96,915
    Thanks
    9
    Thanked 98,375 Times in 47,332 Posts

    Angry [ฝรั่ง]-ใหม่ร้อนๆ! [* เล็กพริกขี้หนู 1080p Super HQ *] A Walk Among the Tombstones (2014) : พลิกเกมนรกล่าสุดโลก -CtHts. [พากย์ไทย 5.1 + อังกฤษ DTS @ZEZA]-[บรรยายไทย + อังกฤษ]-[เสียงไทย + ซับไทย MASTER +ซับ PGS ไทยคมชัดถึงใจ]




    wrote:

    ...A Walk Among The Tombstones นำเสนอเรื่องราวของ แมทธิว สคัดเดอร์ (รับบทโดยเลียม นีสัน) อดีตตํารวจขี้เหล้า
    ที่ทํางานผิดพลาดจนทําให้ผู้บริสุทธิ์ต้องเสียชีวิต เขาเสียใจกับความผิดพลาดที่เกิดขึ้นจึงผันตัวเองมาเป ็นนักสืบเอกชนไร้สังกัด
    แมทต์ตกลงยอมช่วยสืบคดีลักพาตัวและฆาตกรรมภรรยาของเจ ้าพ่อค้ายาเสพติด แมทต์รู้ว่าคดีนี้น่าจะเป็นฝีมือของฆาตกรมืออาชีพ
    ที่ไม่ได้เพิ่งลงทำเป็นครั้งแรก เขาต้องพยายามทำทุกวิถีทางเพื่อหยุดฆาตกรรายนี้ให้ได ้ ก่อนที่จะมีผู้บริสุทธิ์ต้องสังเวยชีวิต!!!


    wrote:

    Format : Matroska
    Format version : Version 4 / Version 2
    File size : 3.94 GiB
    Duration : 1h 54mn
    Overall bit rate : 4 949 Kbps
    Movie name : {MINI Super-HQ}A.Walk.Among.The.Tombstones.2014.1080p.BrRip.DT S.x264_by [email protected]
    Encoded date : UTC 2010-02-22 21:41:31
    Writing application : mkvmerge v5.9.0 ( On The Loose ) built on Dec 9 2012 15:37:01
    Writing library : libebml v1.3.0 + libmatroska v1.4.0

    Video
    ID : 1
    Format : AVC
    Format/Info : Advanced Video Codec
    Format profile : [email protected]
    Format settings, CABAC : Yes
    Format settings, ReFrames : 4 frames
    Codec ID : V_MPEG4/ISO/AVC
    Duration : 1h 54mn
    Bit rate : 3 636 Kbps
    Width : 1 920 pixels
    Height : 804 pixels

    Display aspect ratio : 2.40:1
    Frame rate mode : Constant
    Frame rate : 23.976 fps
    Color space : YUV
    Chroma subsampling : 4:2:0
    Bit depth : 8 bits
    Scan type : Progressive
    Bits/(Pixel*Frame) : 0.098
    Stream size : 2.96 GiB (75%)
    Title : {MINI Super-HQ}A.Walk.Among.The.Tombstones.2014.1080p.BrRip.DT S.x264_by [email protected]
    Writing library : x264 core 130 r2273 b3065e6
    Encoding settings : cabac=1 / ref=4 / deblock=1:0:0 / analyse=0x3:0x113 / me=umh / subme=11 / psy=1 / psy_rd=1.00:0.00 / mixed_ref=1 / me_range=64 / chroma_me=1 / trellis=2 / 8x8dct=1 / cqm=0 / deadzone=21,11 / fast_pskip=1 / chroma_qp_offset=-2 / threads=12 / lookahead_threads=1 / sliced_threads=0 / nr=0 / decimate=1 / interlaced=0 / bluray_compat=0 / constrained_intra=0 / bframes=4 / b_pyramid=2 / b_adapt=2 / b_bias=0 / direct=1 / weightb=1 / open_gop=0 / weightp=2 / keyint=240 / keyint_min=24 / scenecut=40 / intra_refresh=0 / rc_lookahead=40 / rc=2pass / mbtree=1 / bitrate=3636 / ratetol=1.0 / qcomp=0.60 / qpmin=0 / qpmax=69 / qpstep=4 / cplxblur=20.0 / qblur=0.5 / ip_ratio=1.40 / aq=1:1.00
    Language : English
    Default : Yes
    Forced : No

    Audio #1
    ID : 2
    Format : AC-3
    Format/Info : Audio Coding 3
    Mode extension : CM (complete main)
    Format settings, Endianness : Big
    Codec ID : A_AC3
    Duration : 1h 54mn
    Bit rate mode : Constant
    Bit rate : 384 Kbps
    Channel(s) : 6 channels
    Channel positions : Front: L C R, Side: L R, LFE
    Sampling rate : 48.0 KHz
    Bit depth : 16 bits
    Compression mode : Lossy
    Stream size : 313 MiB (8%)
    Title : Thai DVD Master
    Language : Thai
    Default : Yes
    Forced : Yes

    Audio #2
    ID : 3
    Format : DTS
    Format/Info : Digital Theater Systems
    Mode : 16
    Format settings, Endianness : Big
    Codec ID : A_DTS
    Duration : 1h 54mn
    Bit rate mode : Constant
    Bit rate : 755 Kbps
    Channel(s) : 6 channels
    Channel positions : Front: L C R, Side: L R, LFE
    Sampling rate : 48.0 KHz
    Bit depth : 24 bits
    Compression mode : Lossy
    Stream size : 616 MiB (15%)
    Title : English DTS
    Language : English
    Default : No
    Forced : No

    Text #1
    ID : 4
    Format : VobSub
    Codec ID : S_VOBSUB
    Codec ID/Info : The same subtitle format used on DVDs
    Title : Thai 480p DVD Master
    Language : Thai
    Default : No
    Forced : No

    Text #2
    ID : 5
    Format : VobSub
    Codec ID : S_VOBSUB
    Codec ID/Info : The same subtitle format used on DVDs
    Title : Thai 720p
    Language : Thai
    Default : No
    Forced : No

    Text #3
    ID : 6
    Format : VobSub
    Codec ID : S_VOBSUB
    Codec ID/Info : The same subtitle format used on DVDs
    Title : Thai 1080p
    Language : Thai
    Default : Yes
    Forced : Yes

    Text #4
    ID : 7
    Format : VobSub
    Codec ID : S_VOBSUB
    Codec ID/Info : The same subtitle format used on DVDs
    Title : Thai 1080p Yellow
    Language : Thai
    Default : No
    Forced : No

    Text #5
    ID : 8
    Format : VobSub
    Codec ID : S_VOBSUB
    Codec ID/Info : The same subtitle format used on DVDs
    Title : Thai 1080p Out
    Language : Thai
    Default : No
    Forced : No

    Text #6
    ID : 9
    Format : VobSub
    Codec ID : S_VOBSUB
    Codec ID/Info : The same subtitle format used on DVDs
    Title : Thai 1080p BIG
    Language : Thai
    Default : No
    Forced : No

    Text #7
    ID : 10
    Format : VobSub
    Codec ID : S_VOBSUB
    Codec ID/Info : The same subtitle format used on DVDs
    Title : Thai 1080p Out [BIG]
    Language : Thai
    Default : No
    Forced : No

    Text #8
    ID : 11
    Format : PGS
    Codec ID : S_HDMV/PGS
    Codec ID/Info : The same subtitle format used on BDs/HD-DVDs
    Title : Thai PGS
    Language : Thai
    Default : No
    Forced : No

    Text #9
    ID : 12
    Format : PGS
    Codec ID : S_HDMV/PGS
    Codec ID/Info : The same subtitle format used on BDs/HD-DVDs
    Title : Thai PGS Yellow
    Language : Thai
    Default : No
    Forced : No

    Text #10
    ID : 13
    Format : PGS
    Codec ID : S_HDMV/PGS
    Codec ID/Info : The same subtitle format used on BDs/HD-DVDs
    Title : Thai PGS Out
    Language : Thai
    Default : No
    Forced : No

    Text #11
    ID : 14
    Format : VobSub
    Codec ID : S_VOBSUB
    Codec ID/Info : The same subtitle format used on DVDs
    Title : English
    Language : English
    Default : No
    Forced : No

    Text #12
    ID : 15
    Format : UTF-8
    Codec ID : S_TEXT/UTF8
    Codec ID/Info : UTF-8 Plain Text
    Title : English
    Language : English
    Default : No
    Forced : No


    wrote:

    SS แค๊ปจากตัวไฟล์ ค่ะ







    ส่งมอบ โดย : NongZEZA

    http://www.mekafile.com/dl.php?f=v5991aaR1naf

    http://cornfile.com/ihwisue7jmqc fix

  2. The Following 3 Users Say Thank You to Duckload.us For This Useful Post:

    chakhrit (01-08-2015), dude (01-08-2015), kappa (10-11-2018)

  3. #2

+ Reply to Thread

Thread Information

Users Browsing this Thread

There are currently 1 users browsing this thread. (0 members and 1 guests)

     

Posting Permissions

  • You may not post new threads
  • You may not post replies
  • You may not post attachments
  • You may not edit your posts