+ ตอบกลับกระทู้
สรุปผลการค้นหา 1 ถึง 2 จากทั้งหมด 2
  1. #1
    Administrators รูปส่วนตัว Duckload.us
    สมัครเมื่อ
    Dec 2010
    โพสต์
    114,480
    Thanks
    7
    Thanked 120,802 Times in 54,317 Posts

    Question [ฝรั่ง]-Cats (2019) แคทส์ - [Soundtrack บรรยายไทย+อังกฤษ] 1080p.BluRay.x264 [หนังที่คว้ารางวัลหนังยอดแย่แห่งปี Golden Raspberry Awards 2020]




    Cats แคทส์ นำแสดงโดย เจมส์ คอร์เดน, จูดี้ เดนช์, เจสัน เดรูโล, อิดริส เอลบา, เจนนิเฟอร์ ฮัดสัน, เอียน แมคคัลเลน, เทย์เลอร์ สวิฟท์ เรเบล วิลสัน, และขอแนะนำฟรานเชสกา เฮย์เวิร์ด นักเต้นจากรอยัลบัลเลต์ซี่งมาแสดงภาพยนตร์เป็นครั้งแ รก

    ภาพยนตร์ประกอบด้วยเพลงของ แอนดริว ลอยด์ เว็บเบอร์ และนักเต้นระดับโลกซึ่งอยู่ภายใต้การดูแลของแอนดี้ บลังเคนบูเอเลอร์ นักออกแบบท่าเต้นรางวัลโทนี่ (มีผลงานอย่าง Hamilton, In the Heights) ภาพยนตร์สร้างสรรค์จินตนาการของความเป็นมิวสิคัลให้ก ับคนรุ่นใหม่ได้ชมงานโปรดักชั่นที่ยิ่งใหญ่, เทคโนโลยีทันสมัย และสไตล์การเต้นทั้งแบบบัลเลต์คลาสสิค ไปจนถึงฮิปฮอป, แจ๊ส, สตรีทแดนซ์ และแท็ป

    นอกจากนี้ ภาพยนตร์ยังได้ร็อบบี้ แฟร์ชายลด์ (Broadway’s An American in Paris), ลอรี่ เดวิดสัน (TNT’s Will), เล ทวินส์ ซึ่งประกอบด้ว แลร์รี่ และโลรองต์, เมทท์ โทว์เลย์ แดนเซอร์ชื่อดัง (จากวิดีโอของริฮันน่าและฟาร์เรลล์ วิลเลี่ยมส์) และสตีเว่น แมคเรย์ นักเต้นจากรอยัลบัลเลต์ และศิลปินดาวรุ่ง บลูอี้ โรบินสัน
    ยูนิเวอร์แซล พิคเจอร์ ขอนำเสนอภาพยนตร์โดยเวิร์กกิ้ง ไทเทิล ฟิล์มและแอมบลิน เอนเตอร์เทนเมนต์ ร่วมกับโมนูเมนทัล พิคเจอร์สและเดอะเรียลลี่ ยูสฟูล กรุ๊ป Cats อำนวยการสร้างโดย เดบรา เฮย์เวิร์ด, ทิม บีแวน, เอริค เฟลเนอร์, ทอม ฮู

    Cats คือหนึ่งในโชว์ที่เปิดการแสดงอย่างยาวนานที่สุดในเวส ต์เอนด์และประวัติศาสตร์ของบรอดเวย์ เปิดแสดงครั้งแรกที่โรงภาพยนตร์นิวลอนดอนในปี 1981 ซึ่งเปิดแสดงที่นี่ถึง 21 ปี และได้รับรางวัลโอลิวิเยอร์แอนด์อีฟนิ่งสแตนดาร์ดสาข ามิวสิคัล ในปี 1983 ละครบรอดเวย์เรื่องนี้ได้รับรางวัลโทนี่ 7 รางวัล รวมถึงสาขามิวสิคัล นับตั้งแต่เปิดแสดง Cats มีผู้ชมมากกว่า 81 ล้านคน มากกว่า 50 ประเทศ และแสดงถึง 19 ภาษา นับว่าเป็นมิวสิคัลที่ประสบความสำเร็จตลอดกาล


    Duration : 1 h 49 min
    Overall bit rate : 15.0 Mb/s
    Encoded date : UTC 2020-04-09 17:20:14
    Writing application : mkvmerge v45.0.0 ('Heaven in Pennies') 64-bit
    Writing library : libebml v1.3.10 + libmatroska v1.5.2
    Cover : Yes
    Attachments : cover

    Video
    ID : 1
    Format : AVC
    Format/Info : Advanced Video Codec
    Format profile : [email protected]
    Format settings : CABAC / 5 Ref Frames
    Format settings, CABAC : Yes
    Format settings, Reference : 5 frames
    Codec ID : V_MPEG4/ISO/AVC
    Duration : 1 h 49 min
    Bit rate : 14.4 Mb/s
    Width : 1 920 pixels
    Height : 804 pixels
    Display aspect ratio : 2.40:1
    Frame rate mode : Constant
    Frame rate : 23.976 (24000/1001) FPS
    Color space : YUV
    Chroma subsampling : 4:2:0
    Bit depth : 8 bits
    Scan type : Progressive
    Bits/(Pixel*Frame) : 0.388
    Stream size : 11.0 GiB (95%)
    Writing library : x264 core 159 r2991+50 ~ Encoded by Mocunaman in Portugal
    Encoding settings : cabac=1 / ref=5 / deblock=1:-3:-3 / analyse=0x3:0x113 / me=umh / subme=11 / psy=1 / fade_compensate=0.00 / psy_rd=1.00:0.00 / mixed_ref=1 / me_range=32 / chroma_me=1 / trellis=2 / 8x8dct=1 / cqm=0 / deadzone=21,11 / fast_pskip=0 / chroma_qp_offset=-2 / threads=25 / lookahead_threads=4 / sliced_threads=0 / nr=0 / decimate=0 / interlaced=0 / bluray_compat=0 / constrained_intra=0 / fgo=0 / bframes=8 / b_pyramid=2 / b_adapt=2 / b_bias=0 / direct=3 / weightb=1 / open_gop=0 / weightp=2 / keyint=250 / keyint_min=23 / scenecut=40 / intra_refresh=0 / rc_lookahead=60 / rc=crf / mbtree=0 / crf=14.9000 / qcomp=0.60 / qpmin=0:0:0 / qpmax=69:69:69 / qpstep=4 / vbv_maxrate=62500 / vbv_bufsize=78125 / crf_max=0.0 / nal_hrd=none / filler=0 / ip_ratio=1.30 / pb_ratio=1.20 / aq=3:0.80 / aq-sensitivity=10.00 / aq-factor=1.00:1.00:1.00 / aq2=0 / aq3=0
    Language : English
    Default : Yes
    Forced : No
    Color range : Limited
    Color primaries : BT.709
    Transfer characteristics : BT.709
    Matrix coefficients : BT.709

    Audio
    ID : 2
    Format : AC-3
    Format/Info : Audio Coding 3
    Commercial name : Dolby Digital
    Codec ID : A_AC3
    Duration : 1 h 49 min
    Bit rate mode : Constant
    Bit rate : 640 kb/s
    Channel(s) : 6 channels
    Channel layout : L R C LFE Ls Rs
    Sampling rate : 48.0 kHz
    Frame rate : 31.250 FPS (1536 SPF)
    Compression mode : Lossy
    Stream size : 503 MiB (4%)
    Language : English
    Service kind : Complete Main
    Default : No
    Forced : No

    Text #1
    ID : 3
    Format : VobSub
    Muxing mode : zlib
    Codec ID : S_VOBSUB
    Codec ID/Info : Picture based subtitle format used on DVDs
    Duration : 1 h 46 min
    Bit rate : 10.6 kb/s
    Count of elements : 1270
    Stream size : 8.09 MiB (0%)
    Language : English
    Default : No
    Forced : No

    Text #2
    ID : 4
    Format : UTF-8
    Codec ID : S_TEXT/UTF8
    Codec ID/Info : UTF-8 Plain Text
    Duration : 1 h 46 min
    Bit rate : 64 b/s
    Count of elements : 1270
    Stream size : 50.5 KiB (0%)
    Language : English
    Default : No
    Forced : No

    Text #3
    ID : 5
    Format : PGS
    Muxing mode : zlib
    Codec ID : S_HDMV/PGS
    Codec ID/Info : Picture based subtitle format used on BDs/HD-DVDs
    Duration : 1 h 46 min
    Bit rate : 30.6 kb/s
    Count of elements : 2540
    Stream size : 23.2 MiB (0%)
    Language : English
    Default : No
    Forced : No

    Text #4
    ID : 6
    Format : VobSub
    Muxing mode : zlib
    Codec ID : S_VOBSUB
    Codec ID/Info : Picture based subtitle format used on DVDs
    Duration : 1 h 48 min
    Bit rate : 6 700 b/s
    Count of elements : 1059
    Stream size : 5.22 MiB (0%)
    Language : Thai
    Default : No
    Forced : No

    Text #5
    ID : 7
    Format : UTF-8
    Codec ID : S_TEXT/UTF8
    Codec ID/Info : UTF-8 Plain Text
    Duration : 1 h 48 min
    Bit rate : 99 b/s
    Count of elements : 1059
    Stream size : 79.2 KiB (0%)
    Language : Thai
    Default : No
    Forced : No

    Text #6
    ID : 8
    Format : PGS
    Muxing mode : zlib
    Codec ID : S_HDMV/PGS
    Codec ID/Info : Picture based subtitle format used on BDs/HD-DVDs
    Duration : 1 h 48 min
    Bit rate : 20.5 kb/s
    Count of elements : 2118
    Stream size : 15.9 MiB (0%)
    Language : Thai
    Default : Yes
    Forced : No





    11.55 GB
    Download: cornfile
    http://cornfile.com/o6t3i8rzig0b
    Download: mekafile
    http://www.mekafile.com/dl.php?f=mx345cc7Crql

  2. #2
    Senior Member
    สมัครเมื่อ
    Jun 2014
    โพสต์
    3,799
    Thanks
    0
    Thanked 0 Times in 0 Posts
    ขอบคุณครับ

+ ตอบกลับกระทู้

ข้อมูลกระทู้

Users Browsing this Thread

ในขณะนี้มี 1 ท่านดูกระทู้อยู่. (0 สมาชิกและ 1 ผู้เยี่ยมชม)

     

กฎการโพสต์ข้อความ

  • ท่าน ไม่สามารถ ตั้งกระทู้ใหม่ได้
  • ท่าน ไม่สามารถ ตอบกระทู้ได้
  • ท่าน ไม่สามารถ แนบไฟล์ได้
  • ท่าน ไม่สามารถ แก้ไขข้อความโพสต์ได้
  • BB code สถานะ เปิด
  • Smilies สถานะ เปิด
  • [IMG] สถานะ เปิด
  • HTML สถานะ ปิด