+ ตอบกลับกระทู้
สรุปผลการค้นหา 1 ถึง 2 จากทั้งหมด 2
  1. #1
    Administrators รูปส่วนตัว Duckload.us
    สมัครเมื่อ
    Dec 2010
    โพสต์
    111,439
    Thanks
    7
    Thanked 116,879 Times in 53,187 Posts

    Question [ฝรั่ง]-((> x265<)) Zombieland: Double Tap (2019) : ซอมบี้แลนด์ แก๊งซ่าส์ล่าล้างซอมบี้ [พากย์ไทย 5.1 + เสียงอังกฤษ DTS:X 7.1]-[บรรยายไทย + อังกฤษ]-[เสียงไทย + ซับไทย From Blu-Ray MASTER + ซับ PGS คมชัด]



    Zombieland: Double Tap_(2019)
    Zombieland เป็นเรื่องราวของโลกที่ได้ล่มสลายลงจากการที่มนุษย์ต ิดเชื้อซอมบี้
    และตัวหนังเป็นเรื่องราวการเอาชีวิตรอดด้วยกฎสุดฮาขอ งกลุ่มคนกลุ่มหนึ่งที่ไม่เคยรู้จักกันมาก่อน
    ในภาคแรกนำแสดงโดย Jesse Eisenberg, Woody Harrelson, Emma Stone และ Abigail Breslin
    ซึ่งผู้เขียนบทอย่าง Wernick ได้ยืนยันกับเราว่า พวกเขาเหล่านี้จะกลับมาในภาค 2 อย่างแน่นอน!!!


    Format : Matroska
    Format version : Version 4 / Version 2
    File size : 9.17 GiB
    Duration : 1 h 39 min
    Overall bit rate : 13.3 Mb/s
    Movie name : Zombieland.Double.Tap.2019.1080p.BluRay.DTS-X [email protected]

    Video
    ID : 1
    Format : HEVC
    Format/Info : High Efficiency Video Coding
    Format profile : Main [email protected]@High
    Codec ID : V_MPEGH/ISO/HEVC
    Duration : 1 h 39 min
    Bit rate : 7 183 kb/s
    Width : 1 920 pixels
    Height : 800 pixels
    Display aspect ratio : 2.40:1
    Frame rate mode : Constant
    Frame rate : 23.976 (24000/1001) FPS
    Color space : YUV
    Chroma subsampling : 4:2:0
    Bit depth : 10 bits
    Bits/(Pixel*Frame) : 0.195
    Stream size : 4.97 GiB (54%)
    Title : Zombieland.Double.Tap.2019.1080p.BluRay.DTS-X [email protected]
    Writing library : x265 - H.265/HEVC codec
    Language : English
    Default : Yes
    Forced : No

    Audio #1
    ID : 2
    Format : AC-3
    Format/Info : Audio Coding 3
    Format settings, Endianness : Big
    Codec ID : A_AC3
    Duration : 1 h 39 min
    Bit rate mode : Constant
    Bit rate : 640 kb/s
    Channel(s) : 6 channels
    Channel positions : Front: L C R, Side: L R, LFE
    Sampling rate : 48.0 kHz
    Frame rate : 31.250 FPS (1536 spf)
    Bit depth : 16 bits
    Compression mode : Lossy
    Stream size : 453 MiB (5%)
    Title : Thai BluRay Master
    Language : Thai
    Service kind : Complete Main
    Default : Yes
    Forced : Yes

    Audio #2
    ID : 3
    Format : DTS
    Format/Info : Digital Theater Systems
    Format profile : MA / Core
    Mode : 16
    Format settings, Endianness : Big
    Codec ID : A_DTS
    Duration : 1 h 39 min
    Bit rate mode : Variable / Constant
    Bit rate : 5 292 kb/s / 1 509 kb/s
    Channel(s) : 8 channels / 6 channels
    Channel positions : Front: L C R, Side: L R, Back: L R, LFE / Front: L C R, Side: L R, LFE
    Sampling rate : 48.0 kHz
    Frame rate : 93.750 FPS (512 spf)
    Bit depth : 24 bits
    Compression mode : Lossless / Lossy
    Stream size : 3.66 GiB (40%)
    Title : English DTS-X 7.1
    Language : English
    Default : No
    Forced : No

    Text #1
    ID : 4
    Format : VobSub
    Muxing mode : zlib
    Codec ID : S_VOBSUB
    Codec ID/Info : Picture based subtitle format used on DVDs
    Duration : 1 h 38 min
    Bit rate : 3 465 b/s
    Count of elements : 1743
    Stream size : 2.44 MiB (0%)
    Title : Thai 720p
    Language : Thai
    Default : No
    Forced : No

    Text #2
    ID : 5
    Format : VobSub
    Muxing mode : zlib
    Codec ID : S_VOBSUB
    Codec ID/Info : Picture based subtitle format used on DVDs
    Duration : 1 h 38 min
    Bit rate : 5 556 b/s
    Count of elements : 1743
    Stream size : 3.91 MiB (0%)
    Title : Thai 1080p
    Language : Thai
    Default : No
    Forced : No

    Text #3
    ID : 6
    Format : VobSub
    Muxing mode : zlib
    Codec ID : S_VOBSUB
    Codec ID/Info : Picture based subtitle format used on DVDs
    Duration : 1 h 38 min
    Bit rate : 5 550 b/s
    Count of elements : 1743
    Stream size : 3.90 MiB (0%)
    Title : Thai 1080p Yellow
    Language : Thai
    Default : No
    Forced : No

    Text #4
    ID : 7
    Format : VobSub
    Muxing mode : zlib
    Codec ID : S_VOBSUB
    Codec ID/Info : Picture based subtitle format used on DVDs
    Duration : 1 h 38 min
    Bit rate : 6 152 b/s
    Count of elements : 1747
    Stream size : 4.35 MiB (0%)
    Title : Thai 1080p Out
    Language : Thai
    Default : Yes
    Forced : Yes

    Text #5
    ID : 8
    Format : VobSub
    Muxing mode : zlib
    Codec ID : S_VOBSUB
    Codec ID/Info : Picture based subtitle format used on DVDs
    Duration : 1 h 38 min
    Bit rate : 7 260 b/s
    Count of elements : 1743
    Stream size : 5.10 MiB (0%)
    Title : Thai 1080p BIG
    Language : Thai
    Default : No
    Forced : No

    Text #6
    ID : 9
    Format : VobSub
    Muxing mode : zlib
    Codec ID : S_VOBSUB
    Codec ID/Info : Picture based subtitle format used on DVDs
    Duration : 1 h 38 min
    Bit rate : 8 024 b/s
    Count of elements : 1747
    Stream size : 5.68 MiB (0%)
    Title : Thai 1080p Out [BIG]
    Language : Thai
    Default : No
    Forced : No

    Text #7
    ID : 10
    Format : VobSub
    Muxing mode : zlib
    Codec ID : S_VOBSUB
    Codec ID/Info : Picture based subtitle format used on DVDs
    Duration : 1 h 38 min
    Bit rate : 10.3 kb/s
    Count of elements : 1787
    Stream size : 7.30 MiB (0%)
    Title : Thai Commentary
    Language : Thai
    Default : No
    Forced : No

    Text #8
    ID : 11
    Format : PGS
    Muxing mode : zlib
    Codec ID : S_HDMV/PGS
    Codec ID/Info : Picture based subtitle format used on BDs/HD-DVDs
    Duration : 1 h 38 min
    Bit rate : 17.8 kb/s
    Count of elements : 3488
    Stream size : 12.5 MiB (0%)
    Title : Thai PGS BluRay Master
    Language : Thai
    Default : No
    Forced : No

    Text #9
    ID : 12
    Format : PGS
    Muxing mode : zlib
    Codec ID : S_HDMV/PGS
    Codec ID/Info : Picture based subtitle format used on BDs/HD-DVDs
    Duration : 1 h 38 min
    Bit rate : 20.9 kb/s
    Count of elements : 3496
    Stream size : 14.8 MiB (0%)
    Title : Thai PGS Yellow
    Language : Thai
    Default : No
    Forced : No

    Text #10
    ID : 13
    Format : PGS
    Muxing mode : zlib
    Codec ID : S_HDMV/PGS
    Codec ID/Info : Picture based subtitle format used on BDs/HD-DVDs
    Duration : 1 h 38 min
    Bit rate : 20.6 kb/s
    Count of elements : 3496
    Stream size : 14.6 MiB (0%)
    Title : Thai PGS Out
    Language : Thai
    Default : No
    Forced : No

    Text #11
    ID : 14
    Format : PGS
    Muxing mode : zlib
    Codec ID : S_HDMV/PGS
    Codec ID/Info : Picture based subtitle format used on BDs/HD-DVDs
    Duration : 1 h 38 min
    Bit rate : 26.6 kb/s
    Count of elements : 3210
    Stream size : 18.7 MiB (0%)
    Title : English
    Language : English
    Default : No
    Forced : No

    Menu
    00:00:00.000 : en:Chapter 01
    00:05:00.675 : en:Chapter 02
    00:11:08.001 : en:Chapter 03
    00:15:24.507 : en:Chapter 04
    00:21:16.192 : en:Chapter 05
    00:29:15.545 : en:Chapter 06
    00:36:55.422 : en:Chapter 07
    00:44:03.015 : en:Chapter 08
    00:50:12.968 : en:Chapter 09
    00:57:52.511 : en:Chapter 10
    01:03:51.870 : en:Chapter 11
    01:06:50.048 : en:Chapter 12
    01:10:12.125 : en:Chapter 13
    01:15:40.119 : en:Chapter 14
    01:23:45.312 : en:Chapter 15
    01:29:48.216 : en:Chapter 16













    Download: cornfile
    http://cornfile.com/2krk3zjnzpfs
    Download: mekafile
    http://www.mekafile.com/dl.php?f=nwf502c3Yw7B

  2. #2
    Senior Member
    สมัครเมื่อ
    Jun 2014
    โพสต์
    2,638
    Thanks
    0
    Thanked 0 Times in 0 Posts
    ขอบคุณครับ

+ ตอบกลับกระทู้

ข้อมูลกระทู้

Users Browsing this Thread

ในขณะนี้มี 1 ท่านดูกระทู้อยู่. (0 สมาชิกและ 1 ผู้เยี่ยมชม)

     

กฎการโพสต์ข้อความ

  • ท่าน ไม่สามารถ ตั้งกระทู้ใหม่ได้
  • ท่าน ไม่สามารถ ตอบกระทู้ได้
  • ท่าน ไม่สามารถ แนบไฟล์ได้
  • ท่าน ไม่สามารถ แก้ไขข้อความโพสต์ได้
  • BB code สถานะ เปิด
  • Smilies สถานะ เปิด
  • [IMG] สถานะ เปิด
  • HTML สถานะ ปิด