+ ͺѺз
ػšä 1 ֧ 1 ҡ 1
  1. #1
    Administrators ٻǹ Duckload.us
    Ѥ
    Dec 2010
    ʵ
    108,452
    Thanks
    7
    Thanked 113,383 Times in 52,323 Posts

    Lightbulb []-Kakegurui (Live Action) (⤵¹ç¹ѹ) S1 [Netflix-DL] Ѻա-WEB-DL.H.264.1080p. [Master]-[Soundtrack ]

    Kakegurui



    Rating: 6.3/10 Year: 2018 Genres: Drama / Mystery / Thriller Runtime: 24 min Language: Japanese Director: Tsutomu Hanabusa Writers: Homura Kawamoto / Tôru Naomura Cast: Minami Hamabe / Ruka Matsuda / Kiyo MatsumotoPlot:

    n/A


    Code:
    General
    Unique ID                   : 202881198419341906137239534421171124357 (0x98A17F5D66039686B294732299263885)
    Complete name               : [Netflix-DL] Kakegurui (Live Action) S01E01 [1080p].mkv
    Format                      : Matroska
    Format version              : Version 4
    File size                   : 714 MiB
    Duration                    : 24 min 2 s
    Overall bit rate mode       : Variable
    Overall bit rate            : 4 151 kb/s
    Encoded date                : UTC 2018-05-12 14:04:12
    Writing application         : mkvmerge v21.0.0 ('Tardigrades Will Inherit The Earth') 32-bit
    Writing library             : libebml v1.3.5 + libmatroska v1.4.8
    
    Video
    ID                          : 1
    Format                      : AVC
    Format/Info                 : Advanced Video Codec
    Format profile              : [email protected]
    Format settings             : CABAC / 3 Ref Frames
    Format settings, CABAC      : Yes
    Format settings, ReFrames   : 3 frames
    Codec ID                    : V_MPEG4/ISO/AVC
    Duration                    : 24 min 2 s
    Bit rate mode               : Variable
    Bit rate                    : 4 020 kb/s
    Maximum bit rate            : 6 030 kb/s
    Width                       : 1 920 pixels
    Height                      : 1 080 pixels
    Display aspect ratio        : 16:9
    Frame rate mode             : Constant
    Frame rate                  : 23.976 (24000/1001) FPS
    Color space                 : YUV
    Chroma subsampling          : 4:2:0
    Bit depth                   : 8 bits
    Scan type                   : Progressive
    Bits/(Pixel*Frame)          : 0.081
    Stream size                 : 691 MiB (97%)
    Writing library             : x264 core 148 r2714 2daf636
    Encoding settings           : cabac=1 / ref=3 / deblock=1:0:0 / analyse=0x1:0x111 / me=umh / subme=10 / psy=1 / psy_rd=1.00:0.00 / mixed_ref=1 / me_range=24 / chroma_me=1 / trellis=2 / 8x8dct=0 / cqm=0 / deadzone=21,11 / fast_pskip=1 / chroma_qp_offset=-2 / threads=8 / lookahead_threads=1 / sliced_threads=0 / nr=0 / decimate=1 / interlaced=0 / bluray_compat=0 / stitchable=1 / constrained_intra=0 / bframes=2 / b_pyramid=0 / b_adapt=2 / b_bias=0 / direct=3 / weightb=1 / open_gop=0 / weightp=2 / keyint=48 / keyint_min=25 / scenecut=0 / intra_refresh=0 / rc_lookahead=48 / rc=2pass / mbtree=1 / bitrate=4020 / ratetol=1.0 / qcomp=0.50 / qpmin=6 / qpmax=51 / qpstep=4 / cplxblur=20.0 / qblur=0.5 / vbv_maxrate=6030 / vbv_bufsize=8040 / nal_hrd=vbr / filler=0 / ip_ratio=1.40 / aq=1:1.00
    Default                     : Yes
    Forced                      : No
    
    Audio
    ID                          : 2
    Format                      : E-AC-3
    Format/Info                 : Enhanced AC-3
    Commercial name             : Dolby Digital Plus
    Codec ID                    : A_EAC3
    Duration                    : 24 min 2 s
    Bit rate mode               : Constant
    Bit rate                    : 128 kb/s
    Channel(s)                  : 2 channels
    Channel layout              : L R
    Sampling rate               : 48.0 kHz
    Frame rate                  : 31.250 FPS (1536 SPF)
    Compression mode            : Lossy
    Stream size                 : 22.0 MiB (3%)
    Title                       : Japanese
    Language                    : Japanese
    Service kind                : Complete Main
    Default                     : No
    Forced                      : No
    
    Text #1
    ID                          : 3
    Format                      : UTF-8
    Codec ID                    : S_TEXT/UTF8
    Codec ID/Info               : UTF-8 Plain Text
    Duration                    : 23 min 56 s
    Bit rate                    : 58 b/s
    Count of elements           : 347
    Stream size                 : 10.2 KiB (0%)
    Title                       : English [Full]
    Language                    : English
    Default                     : No
    Forced                      : No
    
    Text #2
    ID                          : 4
    Format                      : UTF-8
    Codec ID                    : S_TEXT/UTF8
    Codec ID/Info               : UTF-8 Plain Text
    Duration                    : 23 min 56 s
    Bit rate                    : 58 b/s
    Count of elements           : 348
    Stream size                 : 10.3 KiB (0%)
    Title                       : Castilian [Full]
    Language                    : Spanish
    Default                     : No
    Forced                      : No
    
    Text #3
    ID                          : 5
    Format                      : UTF-8
    Codec ID                    : S_TEXT/UTF8
    Codec ID/Info               : UTF-8 Plain Text
    Duration                    : 23 min 56 s
    Bit rate                    : 58 b/s
    Count of elements           : 348
    Stream size                 : 10.2 KiB (0%)
    Title                       : Spanish [Full]
    Language                    : Spanish
    Default                     : No
    Forced                      : No
    
    Text #4
    ID                          : 6
    Format                      : UTF-8
    Codec ID                    : S_TEXT/UTF8
    Codec ID/Info               : UTF-8 Plain Text
    Duration                    : 23 min 56 s
    Bit rate                    : 57 b/s
    Count of elements           : 348
    Stream size                 : 10.1 KiB (0%)
    Title                       : French [Full]
    Language                    : French
    Default                     : No
    Forced                      : No
    
    Text #5
    ID                          : 7
    Format                      : UTF-8
    Codec ID                    : S_TEXT/UTF8
    Codec ID/Info               : UTF-8 Plain Text
    Duration                    : 23 min 56 s
    Bit rate                    : 63 b/s
    Count of elements           : 348
    Stream size                 : 11.1 KiB (0%)
    Title                       : German [Full]
    Language                    : German
    Default                     : No
    Forced                      : No
    
    Text #6
    ID                          : 8
    Format                      : UTF-8
    Codec ID                    : S_TEXT/UTF8
    Codec ID/Info               : UTF-8 Plain Text
    Duration                    : 23 min 56 s
    Bit rate                    : 59 b/s
    Count of elements           : 348
    Stream size                 : 10.4 KiB (0%)
    Title                       : Italian [Full]
    Language                    : Italian
    Default                     : No
    Forced                      : No
    
    Text #7
    ID                          : 9
    Format                      : UTF-8
    Codec ID                    : S_TEXT/UTF8
    Codec ID/Info               : UTF-8 Plain Text
    Duration                    : 23 min 56 s
    Bit rate                    : 55 b/s
    Count of elements           : 348
    Stream size                 : 9.82 KiB (0%)
    Title                       : Portuguese [Full]
    Language                    : Portuguese
    Default                     : No
    Forced                      : No
    
    Text #8
    ID                          : 10
    Format                      : UTF-8
    Codec ID                    : S_TEXT/UTF8
    Codec ID/Info               : UTF-8 Plain Text
    Duration                    : 23 min 56 s
    Bit rate                    : 55 b/s
    Count of elements           : 346
    Stream size                 : 9.80 KiB (0%)
    Title                       : Brazilian Portuguese [Full]
    Language                    : Portuguese
    Default                     : No
    Forced                      : No
    
    Text #9
    ID                          : 11
    Format                      : UTF-8
    Codec ID                    : S_TEXT/UTF8
    Codec ID/Info               : UTF-8 Plain Text
    Duration                    : 23 min 56 s
    Bit rate                    : 54 b/s
    Count of elements           : 348
    Stream size                 : 9.61 KiB (0%)
    Title                       : Polish [Full]
    Language                    : Polish
    Default                     : No
    Forced                      : No
    
    Text #10
    ID                          : 12
    Format                      : UTF-8
    Codec ID                    : S_TEXT/UTF8
    Codec ID/Info               : UTF-8 Plain Text
    Duration                    : 23 min 56 s
    Bit rate                    : 58 b/s
    Count of elements           : 347
    Stream size                 : 10.2 KiB (0%)
    Title                       : Turkish [Full]
    Language                    : Turkish
    Default                     : No
    Forced                      : No
    
    Text #11
    ID                          : 13
    Format                      : UTF-8
    Codec ID                    : S_TEXT/UTF8
    Codec ID/Info               : UTF-8 Plain Text
    Duration                    : 23 min 56 s
    Bit rate                    : 53 b/s
    Count of elements           : 348
    Stream size                 : 9.45 KiB (0%)
    Title                       : Swedish [Full]
    Language                    : Swedish
    Default                     : No
    Forced                      : No
    
    Text #12
    ID                          : 14
    Format                      : UTF-8
    Codec ID                    : S_TEXT/UTF8
    Codec ID/Info               : UTF-8 Plain Text
    Duration                    : 23 min 56 s
    Bit rate                    : 57 b/s
    Count of elements           : 347
    Stream size                 : 10.0 KiB (0%)
    Title                       : Danish [Full]
    Language                    : Danish
    Default                     : No
    Forced                      : No
    
    Text #13
    ID                          : 15
    Format                      : UTF-8
    Codec ID                    : S_TEXT/UTF8
    Codec ID/Info               : UTF-8 Plain Text
    Duration                    : 23 min 56 s
    Bit rate                    : 59 b/s
    Count of elements           : 348
    Stream size                 : 10.4 KiB (0%)
    Title                       : Finnish [Full]
    Language                    : Finnish
    Default                     : No
    Forced                      : No
    
    Text #14
    ID                          : 16
    Format                      : UTF-8
    Codec ID                    : S_TEXT/UTF8
    Codec ID/Info               : UTF-8 Plain Text
    Duration                    : 23 min 57 s
    Bit rate                    : 57 b/s
    Count of elements           : 350
    Stream size                 : 10.1 KiB (0%)
    Title                       : Dutch [Full]
    Language                    : Dutch
    Default                     : No
    Forced                      : No
    
    Text #15
    ID                          : 17
    Format                      : UTF-8
    Codec ID                    : S_TEXT/UTF8
    Codec ID/Info               : UTF-8 Plain Text
    Duration                    : 23 min 56 s
    Bit rate                    : 58 b/s
    Count of elements           : 350
    Stream size                 : 10.2 KiB (0%)
    Title                       : Norwegian [Full]
    Language                    : Norwegian
    Default                     : No
    Forced                      : No
    
    Text #16
    ID                          : 18
    Format                      : UTF-8
    Codec ID                    : S_TEXT/UTF8
    Codec ID/Info               : UTF-8 Plain Text
    Duration                    : 23 min 56 s
    Bit rate                    : 93 b/s
    Count of elements           : 348
    Stream size                 : 16.5 KiB (0%)
    Title                       : Greek [Full]
    Language                    : Greek
    Default                     : No
    Forced                      : No
    
    Text #17
    ID                          : 19
    Format                      : UTF-8
    Codec ID                    : S_TEXT/UTF8
    Codec ID/Info               : UTF-8 Plain Text
    Duration                    : 23 min 56 s
    Bit rate                    : 83 b/s
    Count of elements           : 348
    Stream size                 : 14.7 KiB (0%)
    Title                       : Hebrew [Full]
    Language                    : Hebrew
    Default                     : No
    Forced                      : No
    
    Text #18
    ID                          : 20
    Format                      : UTF-8
    Codec ID                    : S_TEXT/UTF8
    Codec ID/Info               : UTF-8 Plain Text
    Duration                    : 23 min 56 s
    Bit rate                    : 85 b/s
    Count of elements           : 348
    Stream size                 : 15.1 KiB (0%)
    Title                       : Arabic [Full]
    Language                    : Arabic
    Default                     : No
    Forced                      : No
    
    Text #19
    ID                          : 21
    Format                      : UTF-8
    Codec ID                    : S_TEXT/UTF8
    Codec ID/Info               : UTF-8 Plain Text
    Duration                    : 23 min 56 s
    Bit rate                    : 58 b/s
    Count of elements           : 353
    Stream size                 : 10.3 KiB (0%)
    Title                       : Romanian [Full]
    Language                    : Romanian
    Default                     : No
    Forced                      : No
    
    Text #20
    ID                          : 22
    Format                      : UTF-8
    Codec ID                    : S_TEXT/UTF8
    Codec ID/Info               : UTF-8 Plain Text
    Duration                    : 23 min 56 s
    Bit rate                    : 140 b/s
    Count of elements           : 347
    Stream size                 : 24.7 KiB (0%)
    Title                       : Thai [Full]
    Language                    : Thai
    Default                     : No
    Forced                      : No
    
    Text #21
    ID                          : 23
    Format                      : UTF-8
    Codec ID                    : S_TEXT/UTF8
    Codec ID/Info               : UTF-8 Plain Text
    Duration                    : 23 min 56 s
    Bit rate                    : 59 b/s
    Count of elements           : 362
    Stream size                 : 10.5 KiB (0%)
    Title                       : Korean [Full]
    Language                    : Korean
    Default                     : No
    Forced                      : No
    
    Text #22
    ID                          : 24
    Format                      : UTF-8
    Codec ID                    : S_TEXT/UTF8
    Codec ID/Info               : UTF-8 Plain Text
    Duration                    : 23 min 57 s
    Bit rate                    : 52 b/s
    Count of elements           : 350
    Stream size                 : 9.13 KiB (0%)
    Title                       : Chinese (Simplified) [Full]
    Language                    : Chinese
    Default                     : No
    Forced                      : No
    
    Text #23
    ID                          : 25
    Format                      : UTF-8
    Codec ID                    : S_TEXT/UTF8
    Codec ID/Info               : UTF-8 Plain Text
    Duration                    : 23 min 57 s
    Bit rate                    : 51 b/s
    Count of elements           : 346
    Stream size                 : 9.06 KiB (0%)
    Title                       : Chinese (Traditional) [Full]
    Language                    : Chinese
    Default                     : No
    Forced                      : No
    
    Text #24
    ID                          : 26
    Format                      : UTF-8
    Codec ID                    : S_TEXT/UTF8
    Codec ID/Info               : UTF-8 Plain Text
    Duration                    : 23 min 45 s
    Bit rate                    : 75 b/s
    Count of elements           : 350
    Stream size                 : 13.1 KiB (0%)
    Title                       : Japanese [SDH]
    Language                    : Japanese
    Default                     : No
    Forced                      : No

    1
    http://www.filecondo.com/dl.php?f=V96ffb1HFnsa
    2
    http://www.filecondo.com/dl.php?f=58ea531HFnt7
    3
    http://www.filecondo.com/dl.php?f=Hbfd1f1HFnu6
    4
    http://www.filecondo.com/dl.php?f=l239bc1HFnv6
    5
    http://www.filecondo.com/dl.php?f=u37baa1HFnw4
    6
    http://www.filecondo.com/dl.php?f=748ff11HFnx2
    7
    http://www.filecondo.com/dl.php?f=Ad07991HFnxZ
    8
    http://www.filecondo.com/dl.php?f=e4db2f1HFnyX
    9
    http://www.filecondo.com/dl.php?f=E3356c1HFnzW
    10
    http://www.filecondo.com/dl.php?f=J806fd1HFnAS

  2. The Following User Says Thank You to Duckload.us For This Useful Post:

    JOMMY_2 (07-31-2019)

šз

Users Browsing this Thread

㹢й 1 ҹ١з. (0 Ҫԡ 1 )

     

ʵͤ

  • ҹ ö 駡з
  • ҹ ö ͺз
  • ҹ ö
  • ҹ ö 䢢ͤʵ