+ ตอบกลับกระทู้
สรุปผลการค้นหา 1 ถึง 2 จากทั้งหมด 2
  1. #1
    Administrators รูปส่วนตัว Duckload.us
    สมัครเมื่อ
    Dec 2010
    โพสต์
    112,704
    Thanks
    7
    Thanked 118,599 Times in 53,677 Posts

    Question [ฝรั่ง]-**Red Eye (2005) เรดอาย เที่ยวบินระทึก** [เสียงอังกฤษ 5.1+เสียงไทยมาสเตอร์ : บรรยายไทยคมชัด+อังกฤษ]-WEB-DL.H.264.1080p. [Master]-[พากย์ไทย บรรยายไทย]

    **Red Eye (2005) เรดอาย เที่ยวบินระทึก**


    SS


    เรื่องย่อ
    ลิซ่า ไรเซิร์ต (เรเชล แม็คอดัมส์) เกลียดการขึ้นเครื่องบิน แต่ความน่าสะพรึงกลัวที่รอเธออยู่บนเที่ยวบินไฟต์ดึก เพื่อมุ่งหน้าสู่ไมอามี่ ไม่มีอะไรเกี่ยวข้องกับการกลัวการขึ้นเครื่องบินแต่อ ย่างใด หลังจากขึ้นไปนั่งประจำที่อยู่บนเครื่องบิน ลิซ่าต้องประหลาดใจเมื่อพบว่าเธอนั่งติดกับ แจ็คสัน (ซิลเลี่ยน เมอร์ฟี่ย์) ผู้ชายท่าทางมีเสน่ห์คนที่เธอเคยนั่งดื่มอยู่ด้วยกัน ที่อาคารผู้โดยสารในสนามบิน และเป็นคนที่ทำท่าเหมือนจะเข้ามาจีบเธออยู่ชั่วขณะหน ึ่ง แต่หลังจากเครื่องทะยานขึ้นจากสนามบินไม่นาน แจ็คสันทิ้งหน้าฉากของตัวเอง และเปิดเผยเหตุผลที่แท้จริงที่เขาขึ้นมาอยู่บนเครื่อ งบินลำนี้ว่าเขามีแผนที่จะสังหารเลขาธิการหน่วยงานรั กษาความปลอดภัยของประเทศ และลิซ่าคือกุญแจที่จะไขไปสู่ความสำเร็จของแผนการนี้ ถ้าเธอปฏิเสธที่จะให้ความร่วมมือ พ่อของเธอจะต้องถูกสังหารโดยมือสังหารที่กำลังรอโทรศ ัพท์จากแจ็คสันอยู่เมื่อต้องติดอยู่ภายในเครื่องบินท ี่บินอยู่สูงถึง 30,000 ฟุต ลิซ่าไม่มีที่ให้หลบหนีและไม่มีทางที่จะขอความช่วยเห ลือจากใครได้โดยไม่นำชีวิตพ่อของเธอรวมไปถึงผู้โดยสา รคนอื่นๆ และชีวิตของตัวเธอเองไปเสี่ยงอันตราย แต่ละไมล์ที่เครื่องบินบินไป ลิซ่ารู้ดีว่าเวลาของเธอยิ่งหมดลง เมื่อเธอพยายามหาวิธีที่จะขัดขวางผู้ชายที่จับตัวเธอ ไว้และหยุดแผนการฆาตกรรมในครั้งนี้!!

    จับภาพตัวหนัง


    MediaInfo :
    General
    Unique ID : 257511956663640739974107448057915206788 (0xC1BAFFB3D2971067E329CBC55A2F6C84)
    Complete name : D:THE MOVIERed Eye [2005].1080p.WEB-DL.H.264Red Eye (919).mkv
    Format : Matroska
    Format version : Version 4
    File size : 5.95 GiB
    Duration : 1 h 25 min
    Overall bit rate mode : Variable
    Overall bit rate : 9 965 kb/s
    Encoded date : UTC 2019-01-28 07:11:23
    Writing application : mkvmerge v20.0.0 ( I Am The Sun ) 64-bit
    Writing library : libebml v1.3.5 + libmatroska v1.4.8
    Attachments : poster

    Video
    ID : 1
    Format : AVC
    Format/Info : Advanced Video Codec
    Format profile : [email protected]
    Format settings : CABAC / 4 Ref Frames
    Format settings, CABAC : Yes
    Format settings, RefFrames : 4 frames
    Codec ID : V_MPEG4/ISO/AVC
    Duration : 1 h 25 min
    Bit rate mode : Variable
    Bit rate : 8 642 kb/s
    Maximum bit rate : 15.0 Mb/s
    Width : 1 920 pixels
    Height : 1 080 pixels
    Display aspect ratio : 16:9
    Frame rate mode : Constant
    Frame rate : 23.976 (24000/1001) FPS
    Color space : YUV
    Chroma subsampling : 4:2:0
    Bit depth : 8 bits
    Scan type : Progressive
    Bits/(Pixel*Frame) : 0.174
    Stream size : 5.16 GiB (87%)
    Language : English
    Default : Yes
    Forced : No
    Color range : Limited
    Color primaries : BT.709
    Transfer characteristics : BT.709
    Matrix coefficients : BT.709

    Audio #1
    ID : 2
    Format : AC-3
    Format/Info : Audio Coding 3
    Commercial name : Dolby Digital
    Codec ID : A_AC3
    Duration : 1 h 25 min
    Bit rate mode : Constant
    Bit rate : 448 kb/s
    Channel(s) : 6 channels
    Channel layout : L R C LFE Ls Rs
    Sampling rate : 48.0 kHz
    Frame rate : 31.250 FPS (1536 SPF)
    Bit depth : 16 bits
    Compression mode : Lossy
    Stream size : 273 MiB (4%)
    Language : English
    Service kind : Complete Main
    Default : Yes
    Forced : No

    Audio #2
    ID : 3
    Format : AC-3
    Format/Info : Audio Coding 3
    Commercial name : Dolby Digital
    Codec ID : A_AC3
    Duration : 1 h 25 min
    Bit rate mode : Constant
    Bit rate : 192 kb/s
    Channel(s) : 2 channels
    Channel layout : L R
    Sampling rate : 48.0 kHz
    Frame rate : 31.250 FPS (1536 SPF)
    Bit depth : 16 bits
    Compression mode : Lossy
    Stream size : 117 MiB (2%)
    Title : commentary by the filmmakers, including director wes craven
    Language : English
    Service kind : Complete Main
    Default : No
    Forced : No
    Audio #3
    ID : 4
    Format : AC-3
    Format/Info : Audio Coding 3
    Commercial name : Dolby Digital
    Codec ID : A_AC3
    Duration : 1 h 25 min
    Bit rate mode : Constant
    Bit rate : 640 kb/s
    Channel(s) : 6 channels
    Channel layout : L R C LFE Ls Rs
    Sampling rate : 48.0 kHz
    Frame rate : 31.250 FPS (1536 SPF)
    Bit depth : 16 bits
    Compression mode : Lossy
    Delay relative to video : 24 ms
    Stream size : 391 MiB (6%)
    Language : Thai
    Service kind : Complete Main
    Default : No
    Forced : No

    Text #1
    ID : 5
    Format : PGS
    Muxing mode : zlib
    Codec ID : S_HDMV/PGS
    Codec ID/Info : Picture based subtitle format used on BDs/HD-DVDs
    Duration : 1 h 16 min
    Bit rate : 43.1 kb/s
    Count of elements : 1942
    Stream size : 23.5 MiB (0%)
    Title : AngsanaUPC
    Language : Thai
    Default : Yes
    Forced : No

    Text #2
    ID : 6
    Format : PGS
    Muxing mode : zlib
    Codec ID : S_HDMV/PGS
    Codec ID/Info : Picture based subtitle format used on BDs/HD-DVDs
    Duration : 1 h 16 min
    Bit rate : 38.5 kb/s
    Count of elements : 1942
    Stream size : 21.0 MiB (0%)
    Title : Tahoma
    Language : Thai
    Default : No
    Forced : No

    Text #3
    ID : 7
    Format : VobSub
    Muxing mode : zlib
    Codec ID : S_VOBSUB
    Codec ID/Info : Picture based subtitle format used on DVDs
    Duration : 1 h 16 min
    Bit rate : 9 679 b/s
    Count of elements : 971
    Stream size : 5.27 MiB (0%)
    Title : AngsanaUPC
    Language : Thai
    Default : No
    Forced : No

    Text #4
    ID : 8
    Format : VobSub
    Muxing mode : zlib
    Codec ID : S_VOBSUB
    Codec ID/Info : Picture based subtitle format used on DVDs
    Duration : 1 h 16 min
    Bit rate : 8 709 b/s
    Count of elements : 971
    Stream size : 4.74 MiB (0%)
    Title : Tahoma
    Language : Thai
    Default : No
    Forced : No
    Text #5
    ID : 9
    Format : UTF-8
    Codec ID : S_TEXT/UTF8
    Codec ID/Info : UTF-8 Plain Text
    Duration : 1 h 16 min
    Bit rate : 61 b/s
    Count of elements : 976
    Stream size : 34.7 KiB (0%)
    Language : English
    Default : No
    Forced : No

    Menu
    00:00:00.000 : A Rough Morning
    00:06:32.505 : Flight Delayed
    00:15:52.113 : Now Boarding
    00:19:40.116 : Management
    00:26:24.914 : Rough Day
    00:30:12.175 : Calling Dad
    00:37:50.005 : Being Watched
    00:42:32.559 : One of Those Flights
    00:46:50.378 : The Fatal Call
    00:50:24.636 : Keefe s Arrival
    00:55:17.389 : Welcome to Miami
    01:00:29.294 : Keefe s a Target!
    01:04:13.700 : Not In My House
    01:08:25.963 : Finishing the Job
    01:15:08.676 : Comment Card
    01:16:47.884 : End Credits


    http://cornfile.com/dng7jcg3srb8
    http://www.mekafile.com/dl.php?f=9B085dbPH9AB

  2. The Following 5 Users Say Thank You to Duckload.us For This Useful Post:

    Jodz14 (01-31-2019), kappa (02-23-2019), noi54 (02-01-2019), sawara (01-30-2019), Sherlock (02-08-2019)

  3. #2
    Senior Member
    สมัครเมื่อ
    Dec 2013
    โพสต์
    280
    Thanks
    197
    Thanked 0 Times in 0 Posts
    ขอบคุณครับ

+ ตอบกลับกระทู้

ข้อมูลกระทู้

Users Browsing this Thread

ในขณะนี้มี 1 ท่านดูกระทู้อยู่. (0 สมาชิกและ 1 ผู้เยี่ยมชม)

     

กฎการโพสต์ข้อความ

  • ท่าน ไม่สามารถ ตั้งกระทู้ใหม่ได้
  • ท่าน ไม่สามารถ ตอบกระทู้ได้
  • ท่าน ไม่สามารถ แนบไฟล์ได้
  • ท่าน ไม่สามารถ แก้ไขข้อความโพสต์ได้
  • BB code สถานะ เปิด
  • Smilies สถานะ เปิด
  • [IMG] สถานะ เปิด
  • HTML สถานะ ปิด