+ ตอบกลับกระทู้
สรุปผลการค้นหา 1 ถึง 4 จากทั้งหมด 4
  1. #1
    Administrators รูปส่วนตัว Duckload.us
    สมัครเมื่อ
    Dec 2010
    โพสต์
    111,262
    Thanks
    7
    Thanked 116,710 Times in 53,141 Posts

    Exclamation [ฝรั่ง]-The Princess Diaries บันทึกรักเจ้าหญิงมือใหม่ ภาค 1-2 (2001-2004) 1080p-DTS-Blu ray-AVC-H.264-AAA-[พากย์ไทย บรรยายไทย]




    1 The Princess Diaries บันทึกรักเจ้าหญิงมือใหม่ (2001) 1080p
    พากย์ อังกฤษ DTS ไทย AC-3 บรรยาย อังกฤษ ไทย
    SS =


    จูลี่ แอนดรูวส์ นักแสดงเจ้าของรางวัลออสการ์, แอนน์ แฮธาเวย์ ดาราสาวขวัญใจคนใหม่ของคุณ
    และ เฮ็คเตอร์ อลิซอนโด (Pretty Woman) มอบความเบิกบานใจ ในภาพยนตร์ชวนหัวแสนน่ารักและอบอุ่น
    ในเรื่องราวแบบซินเดอเรลล่ายุคใหม่จากดิสนีย์เรื่องน ี้
    มีอา เธอร์โมโพลิส (แฮธาเวย์) คือ สาวน้อยวัยรุ่นผู้สดใส ทว่าขี้อายและ เงอะงะอย่างร้ายกาจ
    สิ่งที่เธอหวังอย่างเดียวคือ ขอรอดชีวิตให้ได้ไปวันๆ โดยไม่เป็นที่สนใจของใครๆในโรงเรียนก็เป็นพอ
    โชคกลับไม่เข้าข้าง เมื่อความปรารถนาที่จะอยู่อย่างเงียบเชียบถูกทำลาย เพราะการมาของคุณย่าเจ้าระเบียบ
    พร้อมความจริงที่ว่า แท้จริงเธอคือเเจ้าหญิงรัชทายาทองค์ต่อไปของราชวงศ์เ จโนเวีย !
    ช็อคซิเพคะ... มีอา ต้องเข้าคอร์ส แปลงโฉมให้เป็นเจ้าหญิงสมตระกูล
    พร้อมการตัดสินใจครั้งยิ่งใหญ่ในชีวิตด้วยเวลาเพียงส ามสัปดาห์เท่านั้น
    แล้วความฮาก็เริ่มต้นกับเจ้าหญิงสุดซุ่มซ่าม ผู้ต้องรับมือกับสื่อมวลชนที่โถมเข้าใส่
    เพื่อนร่วมชั้นจอมอิจฉาและแผนการฮุบประเทศของเธอ
    สนุกสุดฤทธิ์กับเจ้าหญิงมือใหม่ผู้พร้อมขโมยหัวใจผู้ ชมทุกครอบครัว ^_^

    General
    Unique ID : 180299409210365985552457114002070497485 (0x87A46732916B89259294386CF584E8CD)
    Complete name : 1 The Princess Diaries บันทึกรักเจ้าหญิงมือใหม่ (2001) 1080p.mkv
    Format : Matroska
    Format version : Version 4 / Version 2
    File size : 8.21 GiB
    Duration : 1h 55mn
    Overall bit rate : 10.2 Mbps
    Encoded date : UTC 2015-11-18 16:56:16
    Writing application : mkvmerge v8.2.0 ( World of Adventure ) 64bit
    Writing library : libebml v1.3.1 + libmatroska v1.4.2
    DURATION : 01:48:53.585000000
    NUMBER_OF_FRAMES : 1461
    NUMBER_OF_BYTES : 1710983
    _STATISTICS_WRITING_APP : mkvmerge v8.2.0 ( World of Adventure ) 64bit
    _STATISTICS_WRITING_DATE_UTC : 2015-11-18 16:56:16
    _STATISTICS_TAGS : BPS DURATION NUMBER_OF_FRAMES NUMBER_OF_BYTES

    Video
    ID : 1
    Format : AVC
    Format/Info : Advanced Video Codec
    Format profile : [email protected]
    Format settings, CABAC : Yes
    Format settings, ReFrames : 4 frames
    Codec ID : V_MPEG4/ISO/AVC
    Duration : 1h 55mn
    Bit rate : 8 340 Kbps
    Width : 1 920 pixels
    Height : 1 080 pixels
    Display aspect ratio : 16:9
    Frame rate mode : Constant
    Frame rate : 23.976 fps
    Color space : YUV
    Chroma subsampling : 4:2:0
    Bit depth : 8 bits
    Scan type : Progressive
    Bits/(Pixel*Frame) : 0.168
    Stream size : 6.57 GiB (80%)
    Writing library : x264 core 122 r2184 5c85e0a
    Encoding settings : cabac=1 / ref=4 / deblock=1:0:0 / analyse=0x3:0x113 / me=umh / subme=8 / psy=1 / psy_rd=1.00:0.00 / mixed_ref=1 / me_range=16 / chroma_me=1 / trellis=1 / 8x8dct=1 / cqm=0 / deadzone=21,11 / fast_pskip=1 / chroma_qp_offset=-2 / threads=12 / sliced_threads=0 / nr=0 / decimate=1 / interlaced=0 / bluray_compat=0 / constrained_intra=0 / bframes=3 / b_pyramid=2 / b_adapt=2 / b_bias=0 / direct=3 / weightb=1 / open_gop=0 / weightp=2 / keyint=240 / keyint_min=24 / scenecut=40 / intra_refresh=0 / rc_lookahead=50 / rc=2pass / mbtree=1 / bitrate=8340 / ratetol=1.0 / qcomp=0.60 / qpmin=0 / qpmax=69 / qpstep=4 / cplxblur=20.0 / qblur=0.5 / ip_ratio=1.40 / aq=1:1.00
    Language : English
    Default : Yes
    Forced : No
    DURATION : 01:55:28.171000000
    NUMBER_OF_FRAMES : 166110
    NUMBER_OF_BYTES : 7218379770
    _STATISTICS_WRITING_APP : mkvmerge v8.2.0 ( World of Adventure ) 64bit
    _STATISTICS_WRITING_DATE_UTC : 2015-11-18 16:56:16
    _STATISTICS_TAGS : BPS DURATION NUMBER_OF_FRAMES NUMBER_OF_BYTES

    Audio #1
    ID : 2
    Format : AC-3
    Format/Info : Audio Coding 3
    Format profile : Dolby Digital
    Mode extension : CM (complete main)
    Format settings, Endianness : Big
    Codec ID : A_AC3
    Duration : 1h 55mn
    Bit rate mode : Constant
    Bit rate : 320 Kbps
    Channel(s) : 2 channels
    Channel positions : Front: L R
    Sampling rate : 48.0 KHz
    Compression mode : Lossy
    Stream size : 264 MiB (3%)
    Title : Thai AC-3
    Language : Thai
    Default : Yes
    Forced : Yes

    Audio #2
    ID : 3
    Format : DTS
    Format/Info : Digital Theater Systems
    Mode : 16
    Format settings, Endianness : Big
    Codec ID : A_DTS
    Duration : 1h 55mn
    Bit rate mode : Constant
    Bit rate : 1 509 Kbps
    Channel(s) : 6 channels
    Channel positions : Front: L C R, Side: L R, LFE
    Sampling rate : 48.0 KHz
    Bit depth : 24 bits
    Compression mode : Lossy
    Stream size : 1.22 GiB (15%)
    Title : Eng DTS
    Language : English
    Default : No
    Forced : No

    Text #1
    ID : 4
    Format : VobSub
    Muxing mode : zlib
    Codec ID : S_VOBSUB
    Codec ID/Info : Picture based subtitle format used on DVDs
    Title : Thai
    Language : Thai
    Default : No
    Forced : No

    Text #2
    ID : 5
    Format : VobSub
    Muxing mode : zlib
    Codec ID : S_VOBSUB
    Codec ID/Info : Picture based subtitle format used on DVDs
    Title : Thai
    Language : Thai
    Default : No
    Forced : No

    Text #3
    ID : 6
    Format : VobSub
    Muxing mode : zlib
    Codec ID : S_VOBSUB
    Codec ID/Info : Picture based subtitle format used on DVDs
    Title : Eng
    Language : English
    Default : No
    Forced : No

    Text #4
    ID : 7
    Format : UTF-8
    Codec ID : S_TEXT/UTF8
    Codec ID/Info : UTF-8 Plain Text
    Title : Eng SRT
    Language : English
    Default : No
    Forced : No

    Menu
    00:00:00.000 : en:00:00:00.000
    00:03:49.062 : en:00:03:49.062
    00:08:40.645 : en:00:08:40.645
    00:10:06.856 : en:00:10:06.856
    00:16:14.765 : en:00:16:14.765
    00:21:56.565 : en:00:21:56.565
    00:24:38.060 : en:00:24:38.060
    00:28:09.646 : en:00:28:09.646
    00:31:31.640 : en:00:31:31.640
    00:32:20.105 : en:00:32:20.105
    00:33:20.415 : en:00:33:20.415
    00:36:06.289 : en:00:36:06.289
    00:40:16.873 : en:00:40:16.873
    00:45:33.898 : en:00:45:33.898
    00:47:11.996 : en:00:47:11.996
    00:53:30.874 : en:00:53:30.874
    00:59:11.465 : en:00:59:11.465
    01:06:48.171 : en:01:06:48.171
    01:11:02.258 : en:01:11:02.258
    01:17:58.632 : en:01:17:58.632
    01:23:51.026 : en:01:23:51.026
    01:29:12.472 : en:01:29:12.472
    01:32:57.489 : en:01:32:57.489
    01:35:30.642 : en:01:35:30.642
    01:40:36.072 : en:01:40:36.072
    01:45:36.121 : en:01:45:36.121
    01:49:33.150 : en:01:49:33.150

    xxxxxxxxxxxxxxxxxxxxxxxxxxxxxxxxxxxxxxxxxxxxxxxxxx xxxxxxxxxxxxxxxxxxxxxxxxxxxxxxxx

    2 The Princess Diaries บันทึกรักเจ้าหญิงวุ่นลุ้นวิวาห์ The Royal Engagement (2004) 1080p
    พากย์ อังกฤษ DTS ไทย AC-3 บรรยาย อังกฤษ ไทย
    SS =


    ก่อนที่เจ้าหญิงมีอาจะก้าวขึ้นเป็นราชินีแห่งกิโนเวี ยนอย่างเต็มตัว เธอพบว่า ต้องปฏิบัติตามกฏที่ว่า
    เจ้าหญิงจะต้องอภิเษกสมรสเสียก่อน ด้วยเวลาเพียงน้อยนิด เจ้าหญิงมีอา ต้องเรียนรู้การเป็นราชินีที่ดี
    หาเจ้าชายผู้มีรักแท้ และ.ที่สำคัญเธอต้องรักเขา เช่นเดียวกัน
    ภาคต่อของหนังเบาสมองสุดฮิต ที่ฮิตไม่แพ้ภาคแรก จากผู้กำกับ Pretty Woman และ Runaway Bride

    General
    Unique ID : 201312559966843105518027242123962805058 (0x977363849AD7658D8EE5D0D4A0B2EB42)
    Complete name : 2 The Princess Diaries บันทึกรักเจ้าหญิงวุ่นลุ้นวิวาห์ The Royal Engagement (2004) 1080p.mkv
    Format : Matroska
    Format version : Version 4 / Version 2
    File size : 8.46 GiB
    Duration : 1h 53mn
    Overall bit rate : 10.7 Mbps
    Encoded date : UTC 2015-11-18 18:02:10
    Writing application : mkvmerge v8.2.0 ( World of Adventure ) 64bit
    Writing library : libebml v1.3.1 + libmatroska v1.4.2
    DURATION : 01:52:41.045000000
    NUMBER_OF_FRAMES : 1664
    NUMBER_OF_BYTES : 60339
    _STATISTICS_WRITING_APP : mkvmerge v8.2.0 ( World of Adventure ) 64bit
    _STATISTICS_WRITING_DATE_UTC : 2015-11-18 18:02:10
    _STATISTICS_TAGS : BPS DURATION NUMBER_OF_FRAMES NUMBER_OF_BYTES

    Video
    ID : 1
    Format : AVC
    Format/Info : Advanced Video Codec
    Format profile : [email protected]
    Format settings, CABAC : Yes
    Format settings, ReFrames : 4 frames
    Codec ID : V_MPEG4/ISO/AVC
    Duration : 1h 53mn
    Bit rate : 8 536 Kbps
    Width : 1 920 pixels
    Height : 1 080 pixels
    Display aspect ratio : 16:9
    Frame rate mode : Constant
    Frame rate : 23.976 fps
    Color space : YUV
    Chroma subsampling : 4:2:0
    Bit depth : 8 bits
    Scan type : Progressive
    Bits/(Pixel*Frame) : 0.172
    Stream size : 6.59 GiB (78%)
    Writing library : x264 core 122 r2184 5c85e0a
    Encoding settings : cabac=1 / ref=4 / deblock=1:0:0 / analyse=0x3:0x113 / me=umh / subme=8 / psy=1 / psy_rd=1.00:0.00 / mixed_ref=1 / me_range=16 / chroma_me=1 / trellis=1 / 8x8dct=1 / cqm=0 / deadzone=21,11 / fast_pskip=1 / chroma_qp_offset=-2 / threads=12 / sliced_threads=0 / nr=0 / decimate=1 / interlaced=0 / bluray_compat=0 / constrained_intra=0 / bframes=3 / b_pyramid=2 / b_adapt=2 / b_bias=0 / direct=3 / weightb=1 / open_gop=0 / weightp=2 / keyint=240 / keyint_min=24 / scenecut=40 / intra_refresh=0 / rc_lookahead=50 / rc=2pass / mbtree=1 / bitrate=8536 / ratetol=1.0 / qcomp=0.60 / qpmin=0 / qpmax=69 / qpstep=4 / cplxblur=20.0 / qblur=0.5 / ip_ratio=1.40 / aq=1:1.00
    Language : English
    Default : Yes
    Forced : No
    DURATION : 01:53:13.120000000
    NUMBER_OF_FRAMES : 162872
    NUMBER_OF_BYTES : 7243306518
    _STATISTICS_WRITING_APP : mkvmerge v8.2.0 ( World of Adventure ) 64bit
    _STATISTICS_WRITING_DATE_UTC : 2015-11-18 18:02:10
    _STATISTICS_TAGS : BPS DURATION NUMBER_OF_FRAMES NUMBER_OF_BYTES

    Audio #1
    ID : 2
    Format : AC-3
    Format/Info : Audio Coding 3
    Mode extension : CM (complete main)
    Format settings, Endianness : Big
    Codec ID : A_AC3
    Duration : 1h 53mn
    Bit rate mode : Constant
    Bit rate : 640 Kbps
    Channel(s) : 6 channels
    Channel positions : Front: L C R, Side: L R, LFE
    Sampling rate : 48.0 KHz
    Compression mode : Lossy
    Stream size : 518 MiB (6%)
    Title : Thai AC-3
    Language : Thai
    Default : Yes
    Forced : Yes

    Audio #2
    ID : 3
    Format : DTS
    Format/Info : Digital Theater Systems
    Mode : 16
    Format settings, Endianness : Big
    Codec ID : A_DTS
    Duration : 1h 53mn
    Bit rate mode : Constant
    Bit rate : 1 509 Kbps
    Channel(s) : 6 channels
    Channel positions : Front: L C R, Side: L R, LFE
    Sampling rate : 48.0 KHz
    Bit depth : 24 bits
    Compression mode : Lossy
    Stream size : 1.19 GiB (14%)
    Title : Eng DTS
    Language : English
    Default : No
    Forced : No

    Text #1
    ID : 4
    Format : VobSub
    Muxing mode : zlib
    Codec ID : S_VOBSUB
    Codec ID/Info : Picture based subtitle format used on DVDs
    Title : Thai
    Language : Thai
    Default : No
    Forced : No

    Text #2
    ID : 5
    Format : VobSub
    Muxing mode : zlib
    Codec ID : S_VOBSUB
    Codec ID/Info : Picture based subtitle format used on DVDs
    Title : Thai
    Language : Thai
    Default : No
    Forced : No

    Text #3
    ID : 6
    Format : VobSub
    Muxing mode : zlib
    Codec ID : S_VOBSUB
    Codec ID/Info : Picture based subtitle format used on DVDs
    Title : Eng
    Language : English
    Default : No
    Forced : No

    Text #4
    ID : 7
    Format : UTF-8
    Codec ID : S_TEXT/UTF8
    Codec ID/Info : UTF-8 Plain Text
    Title : Eng SRT
    Language : English
    Default : No
    Forced : No

    Menu
    00:00:00.000 : en:00:00:00.000
    00:09:47.879 : en:00:09:47.879
    00:17:43.187 : en:00:17:43.187
    00:31:55.789 : en:00:31:55.789
    00:35:54.444 : en:00:35:54.444
    00:45:33.856 : en:00:45:33.856
    00:52:37.404 : en:00:52:37.404
    01:00:02.057 : en:01:00:02.057
    01:08:09.127 : en:01:08:09.127
    01:19:08.452 : en:01:19:08.452
    01:26:03.533 : en:01:26:03.533
    01:41:44.140 : en:01:41:44.140



    1
    http://www.mekafile.com/dl.php?f=JW17a7b4dcTs
    2
    http://www.mekafile.com/dl.php?f=DSb800b4dcs8

  2. #2
    Senior Member
    สมัครเมื่อ
    Jul 2012
    โพสต์
    6,489
    Thanks
    0
    Thanked 0 Times in 0 Posts
    ขอบคุณมากจ้า

  3. #3
    Junior Member
    สมัครเมื่อ
    Nov 2019
    โพสต์
    3
    Thanks
    5
    Thanked 0 Times in 0 Posts
    ภาคแรกโหลดไม่ได้แล้วค่ะ

  4. #4
    Senior Member
    สมัครเมื่อ
    Jun 2014
    โพสต์
    2,579
    Thanks
    0
    Thanked 0 Times in 0 Posts
    ขอบคุณครับ

+ ตอบกลับกระทู้

ข้อมูลกระทู้

Users Browsing this Thread

ในขณะนี้มี 1 ท่านดูกระทู้อยู่. (0 สมาชิกและ 1 ผู้เยี่ยมชม)

     

กฎการโพสต์ข้อความ

  • ท่าน ไม่สามารถ ตั้งกระทู้ใหม่ได้
  • ท่าน ไม่สามารถ ตอบกระทู้ได้
  • ท่าน ไม่สามารถ แนบไฟล์ได้
  • ท่าน ไม่สามารถ แก้ไขข้อความโพสต์ได้
  • BB code สถานะ เปิด
  • Smilies สถานะ เปิด
  • [IMG] สถานะ เปิด
  • HTML สถานะ ปิด