+ ตอบกลับกระทู้
สรุปผลการค้นหา 1 ถึง 1 จากทั้งหมด 1
  1. #1
    Administrators รูปส่วนตัว Duckload.us
    สมัครเมื่อ
    Dec 2010
    โพสต์
    108,576
    Thanks
    7
    Thanked 113,638 Times in 52,403 Posts

    Exclamation [ฝรั่ง] - GEORGE OF THE JUNGLE (1997) - จอร์จ เจ้าป่าฮาหลุดโลก [พากย์:Thai-Eng][SUB:Thai-Eng][1080i/p]







    George of the Jungle (1997)- จอร์จ เจ้าป่าฮาหลุดโลก

    เนื้อเรื่องย่อ
    ลิงใหญ่ตัวหนึ่งช่วยชีวิตจอร์จน้อยไว้จากอุบัติเหตุเ ครื่องบินตกในป่า เด็กน้อยได้รับการเลี้ยงดูให้เป็นมนุษย์วานร และไม่เคยเลยสักครั้งที่จะโหนเถาวัลย์ไปชนต้นไม้ เออร์ซูลา สแตนโฮป คือทายาทของมหาเศรษฐีจากซานฟรานซิสโกซึ่งมาล่าสัตว์ท ี่เมือง บูคูวู หนุ่มจอร์จได้ช่วยชีวิตเออร์ซูลาไว้และพาเธอมาที่บ้า นกลางป่าของเขา หญิงสาวค่อยๆสอนเขาเกี่ยวกับหลักการต่างๆของสังคมมนุ ษย์ ขณะเดียวกัน ไลย์ คู่หมั้นของ เออร์ซูลาพร้อมด้วยนักล่าสัตว์เถื่อนที่กำลังอยากได้ ลิงขาวตามตำนานก็ได้ออก ตามหาเออร์ซูลาและคนที่จับตัวเธอไป เมื่อทั้งสองถูกตามหาจนพบ เออร์ซูลาก็พาจอร์จไปที่ซานฟรานซิสโก...ป่าซีเมนต์ที ่มีแต่ตึกสูงๆและสิ่งมี ชีวิตแปลกๆรอให้เขาค้นพบอีกมากมาย










    General
    Unique ID : 211020710997803201261868143208430829228 (0x9EC11C5191DA469CACEB42648043FEAC)
    Complete name : F:George.of.the.Jungle.1997.1080p.WEB-DL.H264.DD5.1.ENT-HD.mkv
    Format : Matroska
    Format version : Version 2
    File size : 3.91 GiB
    Duration : 1h 31mn
    Overall bit rate : 6 080 Kbps
    Movie name : Black.Water.2007.720p.WEB-DL.DD5.1.H264.ENT-HD
    Encoded date : UTC 2015-07-14 16:16:15
    Writing application : mkvmerge v5.5.0 ( Healer ) built on Apr 6 2012 21:43:24
    Writing library : libebml v1.2.3 + libmatroska v1.3.0

    Video
    ID : 1
    Format : AVC
    Format/Info : Advanced Video Codec
    Format profile : [email protected]
    Format settings, CABAC : No
    Format settings, ReFrames : 3 frames
    Muxing mode : Header stripping
    Codec ID : V_MPEG4/ISO/AVC
    Duration : 1h 31mn
    Bit rate : 5 383 Kbps
    Width : 1 916 pixels
    Height : 1 032 pixels
    Display aspect ratio : 1.85:1
    Frame rate mode : Constant
    Frame rate : 23.976 fps
    Color space : YUV
    Chroma subsampling : 4:2:0
    Bit depth : 8 bits
    Scan type : Progressive
    Bits/(Pixel*Frame) : 0.114
    Stream size : 3.46 GiB (89%)
    Title : George.of.the.Jungle.1997.1080p.WEB-DL.H264.DD5.1.ENT-HD
    Writing library : x264 core 135
    Encoding settings : cabac=0 / ref=3 / deblock=1:0:0 / analyse=0x1:0x11 / me=hex / subme=7 / psy=1 / psy_rd=1.00:0.00 / mixed_ref=1 / me_range=16 / chroma_me=0 / trellis=2 / 8x8dct=0 / cqm=0 / deadzone=21,11 / fast_pskip=1 / chroma_qp_offset=-2 / threads=3 / lookahead_threads=1 / sliced_threads=0 / nr=0 / decimate=1 / interlaced=0 / bluray_compat=0 / constrained_intra=0 / bframes=0 / weightp=0 / keyint=300 / keyint_min=25 / scenecut=40 / intra_refresh=0 / rc_lookahead=40 / rc=crf / mbtree=1 / crf=22.0 / qcomp=0.60 / qpmin=10 / qpmax=51 / qpstep=4 / ip_ratio=1.40 / aq=1:1.00
    Language : English
    Default : Yes
    Forced : No

    Audio #1
    ID : 2
    Format : AC-3
    Format/Info : Audio Coding 3
    Mode extension : CM (complete main)
    Format settings, Endianness : Big
    Muxing mode : Header stripping
    Codec ID : A_AC3
    Duration : 1h 31mn
    Bit rate mode : Constant
    Bit rate : 384 Kbps
    Channel(s) : 6 channels
    Channel positions : Front: L C R, Side: L R, LFE
    Sampling rate : 48.0 KHz
    Compression mode : Lossy
    Delay relative to video : 500ms
    Stream size : 253 MiB (6%)
    Title : AC3 5.1
    Language : English
    Default : No
    Forced : No

    Audio #2
    ID : 3
    Format : AC-3
    Format/Info : Audio Coding 3
    Format profile : Dolby Digital
    Mode extension : CM (complete main)
    Format settings, Endianness : Big
    Muxing mode : Header stripping
    Codec ID : A_AC3
    Duration : 1h 31mn
    Bit rate mode : Constant
    Bit rate : 192 Kbps
    Channel(s) : 2 channels
    Channel positions : Front: L R
    Sampling rate : 48.0 KHz
    Compression mode : Lossy
    Delay relative to video : 500ms
    Stream size : 126 MiB (3%)
    Title : Stereo
    Language : Thai
    Default : Yes
    Forced : No

    Text #1
    ID : 4
    Format : VobSub
    Muxing mode : zlib
    Codec ID : S_VOBSUB
    Codec ID/Info : Picture based subtitle format used on DVDs
    Language : English
    Default : No
    Forced : No

    Text #2
    ID : 5
    Format : VobSub
    Muxing mode : zlib
    Codec ID : S_VOBSUB
    Codec ID/Info : Picture based subtitle format used on DVDs
    Language : Thai
    Default : Yes
    Forced : No

    Text #3
    ID : 6
    Format : VobSub
    Muxing mode : zlib
    Codec ID : S_VOBSUB
    Codec ID/Info : Picture based subtitle format used on DVDs
    Title : YELLOW
    Language : Thai
    Default : No
    Forced : Yes

    cr. Toa722 - เว็บเพื่อนบ้าน

    http://www.mekafile.com/dl.php?f=oG4cb9b59sH9

  2. The Following 2 Users Say Thank You to Duckload.us For This Useful Post:

    NaiWan (12-26-2015), oretro (05-13-2016)

+ ตอบกลับกระทู้

ข้อมูลกระทู้

Users Browsing this Thread

ในขณะนี้มี 1 ท่านดูกระทู้อยู่. (0 สมาชิกและ 1 ผู้เยี่ยมชม)

     

กฎการโพสต์ข้อความ

  • ท่าน ไม่สามารถ ตั้งกระทู้ใหม่ได้
  • ท่าน ไม่สามารถ ตอบกระทู้ได้
  • ท่าน ไม่สามารถ แนบไฟล์ได้
  • ท่าน ไม่สามารถ แก้ไขข้อความโพสต์ได้
  • BB code สถานะ เปิด
  • Smilies สถานะ เปิด
  • [IMG] สถานะ เปิด
  • HTML สถานะ ปิด