+ ตอบกลับกระทู้
สรุปผลการค้นหา 1 ถึง 1 จากทั้งหมด 1
  1. #1
    Administrators รูปส่วนตัว Duckload.us
    สมัครเมื่อ
    Dec 2010
    โพสต์
    123,776
    Thanks
    7
    Thanked 128,797 Times in 57,297 Posts

    Exclamation [ญี่ปุ่น] Detective Conan The Movie 18 : Dimensional Sniper (2014) | ยอดนักสืบจิ๋วโคนัน เดอะมูฟวี่ 18 : ปริศนากระสุนมรณะ Blu-ray.AC-3.1080p. [พากย์ไทย 2.0/5.1 + ญี่ปุ่น 5.1]-[บรรยายไทย PGS + จีน PGS]



    Detective Conan The Movie 18 Dimensional Sniper (2014)
    โคนัน เดอะมูฟวี่ 18 ภาค ปริศนากระสุนมรณะ
    BluRay.1080p.x264.MASTER

    การซุ่มยิ่งครั้งที่ 1 ที่พุ่งตัดท้องฟ้า! :
    ขณะที่พวกโคนันกำลังเพลิดเพลินกับการชมทิวทัศน์ ณ ตึกเบลทรีทาวเวอร์ ตึกที่สูงที่สุดของญี่ปุ่นที่มีความสูงถึง 635 เมตร จู่ๆ ก็เกิดแสงแว่บขึ้นชั่วพริบตา มาจากสถานที่ซึ่งอยู่ห่างไกลออกไป! แค่เพียงชั่วพริบตาเดียวนั่นเองได้มี “กระสุนปืนไรเฟิล” พุ่งทะลุหน้าต่างของตึกและทะลุผ่านหน้าอกของชายคนหนึ ่งต่อหน้าต่อตา ผู้คนที่มาชมทิวทัศน์บนตึกนี้!

    ปั่นหัว FBI! การไล่ล่ามือซุ่มยิงปริศนา! :
    ขบวนการนักสืบเยาวชนและรันยืนอึ้งโดยไม่รู้ว่าเกิดอะ ไรขึ้น “ซุ่มยิงจากระยะที่ไม่น่าเป็นไปได้...หรือว่า!” ทันใดนั้นเองโคนัน รีบไล่ตามรถมอเตอร์ไซค์ของคนร้ายร่วมกับเซระ มาสุมิ เด็กสาวที่เป็นนักสืบนักเรียนม.ปลาย! ...แม้โคนันและเซระจะเอาตัวรอดจากรถสายตรวจที่กระเด็ นไปเพราะระเบิดของคน ร้าย แต่ช่วงท้ายของการไล่ล่าเซระกับโคนันก็ต้องเผชิญหน้า กับอันตราย พวกเขาได้รับการช่วยเหลือจากพวกโจดี้ตำรวจสืบสวนของ FBI ที่รีบตามมา ส่วนคนร้ายได้หายตัวไปอย่างไร้ร่องรอย

    เงาที่ซ่อนอยู่, ปริศนาที่ยังถูกเหลือทิ้งไว้... :
    เพื่อรับมือกับเหตุการณ์ที่ไม่เคยเกิดขึ้นในญี่ปุ่นม าก่อน, ตำรวจกับ FBI จึงได้ร่วมมือกันและตั้งเป็น หน่วยสืบสวนคดีอาชญากรรมเฉพาะกิจขึ้น กระสุนที่ถือเป็นพยานวัตถุนัดนั้น ได้รับการตรวจสอบและพบว่าถูกยิงมาจากระยะทางที่เหลือ เชื่อ! ถึงขั้นลบล้างหลักการทั่วๆ ไปได้เลย และที่จุดที่ซุ่มยิงนั้นมีปลอกกระสุนของปืนไรเฟิล 4 นัด กับลูกเต๋าหลงเหลืออยู่ สุดท้ายแล้วความหมายของมันคืออะไรกันแน่! ----ใน ระหว่างนั้นทำให้โจดี้หวนคิดถึง อากาอิ ชูอิจิ ตำรวจสืบสวนของ FBI ที่เคยถูกองค์กรชุดดำฆ่าตายไป ในเวลาต่อมาเหล่าอดีตพลซุ่มยิงของหน่วย “Navy Seal” หน่วยรบพิเศษ ""ซีล"" ของนาวิกโยธินสหรัฐ ถูกตกเป็นผู้ต้องสงสัยของหน่วยสืบสวนเฉพาะกิจ!

    แสงที่แว่บขึ้น, อีกครั้ง...! เกิดความตื่นตระหนกขึ้นในโตเกียว!! :
    ตำรวจเริ่มสอบปากคำจากผู้เห็นเหตุการณ์ และ FBI เริ่มตรวจสอบประวัติของมือปืนผู้ต้องสงสัย แล้วเหตุการณ์ซุ่มยิงครั้งที่ 2 ก็เกิดขึ้นต่อหน้าโคนันราวกับเย้ยหยัน! “สมมติว่าถ้านี่หมายถึงการเคาท์ดาวน์ล่ะ ..” การนำเสนอข่าวของสื่อมวลชลถึงเหตุการณ์ซุ่มยิงเริ่มร ้อนแรงขึ้น, ในอินเทอร์เน็ตเกิดการแพร่กระจายข่าวไปอย่างรวดเร็ว ทำให้คนในโตเกียวเสียขวัญหวาดผวาว่าใครจะเป็นเหยื่อร ายต่อไป ขณะที่โตเกียวเริ่มถูกวังวนของความตื่นตระหนกเข้ากลื นกิน กลับมีการเคลื่อนไหวของโอกิยะ ซูบารุ รุ นักศึกษามหาวิทยาลัยผู้ลึกลับเกิดขึ้น..อย่างเงียบๆ

    กับดักของสไนเปอร์!? คร่าชีวิตของคนบริสุทธิ์
    สถานะการณ์เลวร้ายลงทุกขณะ โคนันและทีมหน่วยสืบสวนคดีอาชญากรรมเฉพาะกิจรู้สึกถึ งความมืดมน เป้าหมายที่อยู่ปลายทางของกลอุบายสไนเปอร์คืออะไรกัน แน่? ผู้ต้องสงสัยเป็นบุคลในเครื่องแบบจริงหรือ?.. แต่แล้วความพยายามในการตีปริศนาลูกเต๋าที่เหลือทิ้งไ ว้ในที่เกิดเหตุของโค นันก็สำเร็จ และได้รู้ว่าเหยื่อรายสุดท้ายคือใคร แต่!! โคนันจะหยุดยั้งการฆ่าครั้งนี้ได้หรือไม่ แล้วจะมีผู้บริสุทธิ์ต้องถูกสังเวยอีกกี่ชีวิตในวิถี ปืนนี้ .... กระสุนแห่งการแก้แค้นจะทำให้ชะตากรรมของโคนัน, เซระ และพวกรันผิดเพี้ยนไปตลอดกาลหรือไม่นะ! โปรดติดตามคดีสุดแสนอันตรายที่นำไปพบกับความดำมืดและ อดีตที่ถูกซ่อนไว้ของ “ใครคนหนึ่ง”ที่ทำให้ทุกคนต้องตะลึง ในยอดนักสืบจิ๋วโคนัน เดอะมูฟวี่ ภาค 18 : ปริศนากระสุนมรณะ

    General
    Unique ID : 218427135393995258638285486940668638885 (0xA453893C07201C27BBABD6F05A0936A5)
    Complete name : Detective Conan Movie 18 - Dimensional Sniper.mkv
    Format : Matroska
    Format version : Version 4 / Version 2
    File size : 8.39 GiB
    Duration : 1h 50mn
    Overall bit rate : 10.9 Mbps
    Encoded date : UTC 2015-12-22 13:47:11
    Writing application : mkvmerge v7.5.0 ( Glass Culture ) 32bit built on Jan 4 2015 16:37:25
    Writing library : libebml v1.3.1 + libmatroska v1.4.2
    Attachements : cover.png / UPCDB_0_0.TTF / UPCDB_0_0.TTF / UPCDB_0_0.TTF
    _STATISTICS_WRITING_APP : mkvmerge v7.5.0 ( Glass Culture ) 32bit built on Jan 4 2015 16:37:25
    _STATISTICS_WRITING_DATE_UT : 2015-12-22 13:47:11
    _STATISTICS_TAGS : BPS DURATION NUMBER_OF_FRAMES NUMBER_OF_BYTES
    DURATION : 01:48:19.994000000
    NUMBER_OF_FRAMES : 472
    NUMBER_OF_BYTES : 3038116

    Video
    ID : 1
    Format : AVC
    Format/Info : Advanced Video Codec
    Format profile : [email protected]
    Format settings, CABAC : Yes
    Format settings, ReFrames : 4 frames
    Codec ID : V_MPEG4/ISO/AVC
    Duration : 1h 50mn
    Bit rate : 9 362 Kbps
    Width : 1 920 pixels
    Height : 1 080 pixels
    Display aspect ratio : 16:9
    Frame rate mode : Constant
    Frame rate : 23.976 fps
    Color space : YUV
    Chroma subsampling : 4:2:0
    Bit depth : 8 bits
    Scan type : Progressive
    Bits/(Pixel*Frame) : 0.188
    Stream size : 7.21 GiB (86%)
    Title : Detective.Conan.Dimensional.Sniper.2014.BluRay.108 0p.x264.DD5.1-HDWinG.THAI2.0-Zakky
    Writing library : x264 core 142 r2431+42 c69a006 tMod [[email protected]:2:0 X86_64]
    Encoding settings : cabac=1 / ref=4 / deblock=1:-3:-3 / analyse=0x3:0x113 / me=umh / subme=11 / psy=1 / fade_compensate=0.00 / psy_rd=1.00:0.00 / mixed_ref=1 / me_range=48 / chroma_me=1 / trellis=2 / 8x8dct=1 / cqm=0 / deadzone=21,11 / fast_pskip=0 / chroma_qp_offset=-2 / threads=48 / lookahead_threads=8 / sliced_threads=0 / nr=0 / decimate=0 / interlaced=0 / bluray_compat=0 / constrained_intra=0 / fgo=0 / bframes=12 / b_pyramid=2 / b_adapt=2 / b_bias=0 / direct=3 / weightb=1 / open_gop=0 / weightp=2 / keyint=240 / keyint_min=24 / scenecut=40 / intra_refresh=0 / rc_lookahead=60 / rc=crf / mbtree=0 / crf=15.6000 / qcomp=0.70 / qpmin=0:0:0 / qpmax=69:69:69 / qpstep=4 / vbv_maxrate=50000 / vbv_bufsize=40000 / crf_max=0.0 / nal_hrd=none / filler=0 / ip_ratio=1.35 / pb_ratio=1.30 / aq=4:0.90 / aq-sensitivity=10.00 / aq-factor=1.00:1.00:1.00 / aq2=0 / aq3=0
    Language : Japanese
    Default : Yes
    Forced : No
    _STATISTICS_WRITING_APP : mkvmerge v7.5.0 ( Glass Culture ) 32bit built on Jan 4 2015 16:37:25
    _STATISTICS_WRITING_DATE_UT : 2015-12-22 13:47:11
    _STATISTICS_TAGS : BPS DURATION NUMBER_OF_FRAMES NUMBER_OF_BYTES
    DURATION : 01:50:16.610000000
    NUMBER_OF_FRAMES : 158640
    NUMBER_OF_BYTES : 7834853122

    Audio #1
    ID : 2
    Format : AC-3
    Format/Info : Audio Coding 3
    Mode extension : CM (complete main)
    Format settings, Endianness : Big
    Codec ID : A_AC3
    Duration : 1h 50mn
    Bit rate mode : Constant
    Bit rate : 224 Kbps
    Channel(s) : 2 channels
    Channel positions : Front: L R
    Sampling rate : 48.0 KHz
    Compression mode : Lossy
    Stream size : 177 MiB (2%)
    Title : 2.0 AC3 MASTER FIXED BY ZAKKY
    Language : Thai
    Default : Yes
    Forced : Yes

    Audio #2
    ID : 3
    Format : AC-3
    Format/Info : Audio Coding 3
    Mode extension : CM (complete main)
    Format settings, Endianness : Big
    Codec ID : A_AC3
    Duration : 1h 50mn
    Bit rate mode : Constant
    Bit rate : 448 Kbps
    Channel(s) : 6 channels
    Channel positions : Front: L C R, Side: L R, LFE
    Sampling rate : 48.0 KHz
    Compression mode : Lossy
    Stream size : 353 MiB (4%)
    Title : 5.1 AC3 MASTER FIXED BY MPON
    Language : Thai
    Default : No
    Forced : No

    Audio #3
    ID : 4
    Format : AC-3
    Format/Info : Audio Coding 3
    Mode extension : CM (complete main)
    Format settings, Endianness : Big
    Codec ID : A_AC3
    Duration : 1h 50mn
    Bit rate mode : Constant
    Bit rate : 640 Kbps
    Channel(s) : 6 channels
    Channel positions : Front: L C R, Side: L R, LFE
    Sampling rate : 48.0 KHz
    Compression mode : Lossy
    Stream size : 505 MiB (6%)
    Title : Japanese DD 5.1 @ 640 kbps
    Language : Japanese
    Default : No
    Forced : No

    Text #1
    ID : 5
    Format : PGS
    Muxing mode : zlib
    Codec ID : S_HDMV/PGS
    Codec ID/Info : Picture based subtitle format used on BDs/HD-DVDs
    Title : Thai [PGS]
    Language : Thai
    Default : Yes
    Forced : Yes

    Text #2
    ID : 6
    Format : PGS
    Muxing mode : zlib
    Codec ID : S_HDMV/PGS
    Codec ID/Info : Picture based subtitle format used on BDs/HD-DVDs
    Title : Thai Sub Picture [PGS]
    Language : Thai
    Default : No
    Forced : No

    Text #3
    ID : 7
    Format : PGS
    Muxing mode : zlib
    Codec ID : S_HDMV/PGS
    Codec ID/Info : Picture based subtitle format used on BDs/HD-DVDs
    Language : Chinese
    Default : No
    Forced : No

    Text #4
    ID : 8
    Format : PGS
    Muxing mode : zlib
    Codec ID : S_HDMV/PGS
    Codec ID/Info : Picture based subtitle format used on BDs/HD-DVDs
    Language : Chinese
    Default : No
    Forced : No

    Menu
    00:00:00.000 : en:00:00:00.000
    00:05:38.838 : en:00:05:38.838
    00:11:47.123 : en:00:11:47.123
    00:16:41.500 : en:00:16:41.500
    00:25:30.904 : en:00:25:30.904
    00:32:32.158 : en:00:32:32.158
    00:37:07.308 : en:00:37:07.308
    00:50:17.723 : en:00:50:17.723
    00:58:43.520 : en:00:58:43.520
    01:04:43.170 : en:01:04:43.170
    01:12:18.959 : en:01:12:18.959
    01:21:33.430 : en:01:21:33.430
    01:28:50.158 : en:01:28:50.158
    01:34:39.173 : en:01:34:39.173
    01:38:57.932 : en:01:38:57.932
    01:45:32.826 : en:01:45:32.826

    ================================================== =========



    ================================================== =========

    รายละเอียด
    - ความคมชัด : 1920x1080 (1080p)
    - เสียง : ไทย 2.0, ไทย 5.1, ญี่ปุ่น 5.1
    - คำบรรยาย : ไทย (PGS), จีน (PGS)

    Modified ใหม่! พร้อมเสียงไทย 5.1 และซับไทย PGS
    ขอบคุณเสียงไทย 2.0 และไฟล์วีดีโอจากพี่ Zakky


    http://www.filecondo.com/dl.php?f=5Rb1edb5J1ow

  2. The Following User Says Thank You to Duckload.us For This Useful Post:

    F2UMaH6398 (06-20-2016)

+ ตอบกลับกระทู้

ข้อมูลกระทู้

Users Browsing this Thread

ในขณะนี้มี 1 ท่านดูกระทู้อยู่. (0 สมาชิกและ 1 ผู้เยี่ยมชม)

     

กฎการโพสต์ข้อความ

  • ท่าน ไม่สามารถ ตั้งกระทู้ใหม่ได้
  • ท่าน ไม่สามารถ ตอบกระทู้ได้
  • ท่าน ไม่สามารถ แนบไฟล์ได้
  • ท่าน ไม่สามารถ แก้ไขข้อความโพสต์ได้
  • BB code สถานะ เปิด
  • Smilies สถานะ เปิด
  • [IMG] สถานะ เปิด
  • HTML สถานะ ปิด